Неофициальный клуб пользователей HD видео плеера WD TV


»Юзер: »Пароль:   Запомнить? 
WDTV Forum / Форум про WD TV Gen2 / Опыт эксплуатации / Не воспроизводит .AVI расширение.
Написано:  02 Янв 2010 11:35
Не воспроизводит .AVI расширение файлы больного обьёма ( до 2 гб воспроизводит ) . Кто в курсе проблемы ???
Написано:  02 Янв 2010 12:03
как говорится у телепатов болит голова,поэтому медианфо файлов сюда
__________________
Sharp LC-32X20RU + WDTV Gen2 + WDTV Live (если понравилось 41001352107159 яндекс)
Написано:  02 Янв 2010 12:17
+1
без медиаинфо никто помочь не сможет.. причины могут быть совершенно различные..
__________________
Где купить WD TV: Live Streaming
Написано:  02 Янв 2010 20:30
Спасибо за подсказку. (раньше не знал как это делают)
Вот пример:
Общее
Полное имя                       : H:\Морские Виды - HDScape - HDWindow - Visions of the Sea - Explorations  [HD]\Морские Виды - HDScape - HDWindow - Visions of the Sea - Explorations  [HD].avi
Формат                           : Matroska
Размер файла                     : 4,26 Гибибайт
Продолжительность                : 1 ч. 0 м.
Общий поток                      : 10,2 Мбит/сек
Фильм                            : HDScape: Visions of the Sea - Explorations *HDClub*
Дата кодирования                 : UTC 2008-09-11 13:16:10
Программа кодирования            : mkvmerge v2.2.0 ('Turn It On Again') built on Mar  4 2008 12:58:26
Библиотека кодирования           : libebml v0.7.7 + libmatroska v0.8.1

Видео
Идентификатор                    : 1
Формат                           : AVC
Формат/Информация                : Advanced Video Codec
Профайл формата                  : High@L5.1
Параметры CABAC формата          : Да
Параметры ReFrames формата       : 2 кадры
Режим смешивания                 : Container profile=Unknown@5.1
Идентификатор кодека             : V_MPEG4/ISO/AVC
Продолжительность                : 59 м.
Битрейт                          : 9513 Кбит/сек
Номинальный битрейт              : 9700 Кбит/сек
Ширина                           : 1280 пикс.
Высота                           : 720 пикс.
Соотношение кадра                : 16:9
Частота кадров                   : 29,970 кадр/сек
Разрешение                       : 8 бит
Колориметрия                     : 4:2:0
Тип развёртки                    : Прогрессивная
Бит/(Пиксели*Кадры)              : 0.344
Размер потока                    : 3,98 Гибибайт (94%)
Заголовок                        : HDScape: Visions of the Sea - Explorations
Библиотека кодирования           : x264 core 60
Настройки программы              : cabac=1 / ref=1 / deblock=1:0:0 / analyse=0x3:0x133 / me=hex / subme=7 / brdo=0 / mixed_ref=0 / me_range=16 / chroma_me=1 / trellis=1 / 8x8dct=1 / cqm=0 / deadzone=21,11 / chroma_qp_offset=0 / threads=3 / nr=0 / decimate=1 / mbaff=0 / bframes=16 / b_pyramid=0 / b_adapt=1 / b_bias=0 / direct=3 / wpredb=1 / bime=1 / keyint=250 / keyint_min=25 / scenecut=40(pre) / rc=abr / bitrate=9700 / ratetol=1.0 / rceq='blurCplx^(1-qComp)' / qcomp=1.00 / qpmin=10 / qpmax=51 / qpstep=4 / ip_ratio=1.40 / pb_ratio=1.30 / aq=2:1.00

Аудио
Идентификатор                    : 2
Формат                           : AC-3
Формат/Информация                : Audio Coding 3
Идентификатор кодека             : A_AC3
Продолжительность                : 1 ч. 0 м.
Вид битрейта                     : Постоянный
Битрейт                          : 448 Кбит/сек
Канал(ы)                         : 6 канала(ов)
Расположение каналов             : Front: L C R, Surround: L R, LFE
Частота                          : 48,0 КГц
Размер потока                    : 192 Мегабайт (4%)
Заголовок                        : AC3, 448 kbps Оригинал
Написано:  02 Янв 2010 20:42
хы ну и вот проблема ваша
Visions of the Sea - Explorations  [HD].avi
Формат                           : Matroska

переименовать вместо ави должно быть mkv
__________________
Sharp LC-32X20RU + WDTV Gen2 + WDTV Live (если понравилось 41001352107159 яндекс)
Написано:  04 Янв 2010 10:42   Отредактировано: Andy_Ju
Не воспроизводит файл с такими характеристиками:
Общее
Полное имя                       : N:\кино1\grupadruzey.wmv
Формат                           : Windows Media
Размер файла                     : 107 Мегабайт
Продолжительность                : 29 м.
Режим общего битрейта            : Постоянный
Общий поток                      : 500 Кбит/сек
Максимальный общий битрейт       : 499 Кбит/сек
Исполнитель                      : Conductor 114111320
Дата кодирования                 : UTC 2008-04-29 13:38:40.990

Видео
Идентификатор                    : 2
Формат                           : WMV2
Идентификатор кодека             : WMV2
Идентификатор кодека/Информация  : Windows Media Video 8
Описание кодека                  : Windows Media Video V8
Продолжительность                : 29 м.
Вид битрейта                     : Постоянный
Битрейт                          : 458 Кбит/сек

Кто разбирается и что с ним делать, если конвертировать, то чем?
Написано:  12 Янв 2013 16:11
дабы не плодить напишу здесь
может кто ответит в чем косяк? (не воспроизводится)

General
ID                               : 8900 (0x22C4)
Complete name                    : D:\media_work\HD suisse Swiss.avi
Format                           : MPEG-TS
File size                        : 792 MiB
Duration                         : 8mn 38s
Overall bit rate                 : 12.8 Mbps

Video
ID                               : 180 (0xB4)
Menu ID                          : 990 (0x3DE)
Format                           : AVC
Format/Info                      : Advanced Video Codec
Format profile                   : High@L4.0
Format settings, CABAC           : Yes
Format settings, ReFrames        : 2 frames
Format settings, GOP             : M=3, N=24
Codec ID                         : 27
Duration                         : 8mn 38s
Bit rate mode                    : Variable
Bit rate                         : 11.7 Mbps
Maximum bit rate                 : 13.2 Mbps
Width                            : 1 280 pixels
Height                           : 720 pixels
Display aspect ratio             : 16:9
Frame rate                       : 50.000 fps
Color space                      : YUV
Chroma subsampling               : 4:2:0
Bit depth                        : 8 bits
Scan type                        : Progressive
Bits/(Pixel*Frame)               : 0.254
Stream size                      : 724 MiB (91%)
Color primaries                  : BT.709-5, BT.1361, IEC 61966-2-4, SMPTE RP177
Transfer characteristics         : BT.709-5, BT.1361
Matrix coefficients              : BT.709-5, BT.1361, IEC 61966-2-4 709, SMPTE RP177

Audio
ID                               : 131 (0x83)
Menu ID                          : 990 (0x3DE)
Format                           : AC-3
Format/Info                      : Audio Coding 3
Mode extension                   : CM (complete main)
Codec ID                         : 6
Duration                         : 8mn 38s
Bit rate mode                    : Constant
Bit rate                         : 448 Kbps
Channel(s)                       : 6 channels
Channel positions                : Front: L C R, Side: L R, LFE
Sampling rate                    : 48.0 KHz
Bit depth                        : 16 bits
Compression mode                 : Lossy
Delay relative to video          : -1s 187ms
Stream size                      : 27.7 MiB (3%)
Language                         : German
Language, more info              : Clean effects
Написано:  12 Янв 2013 16:15
он должен быть m2ts?
Написано:  12 Янв 2013 16:17
точно))
всем спасибо за внимание
Написано:  04 Фев 2013 19:11
подскажите, в чем проблема - не воспроизводится:
(прошивка 1.01.77)

Общее
Полное имя                               : J:\VIDEO\fantasy\Затерянный мир.2009.avi
Формат                                   : AVI
Формат/Информация                        : Audio Video Interleave
Размер файла                             : 1,37 Гбайт
Продолжительность                        : 1 ч. 37 м.
Общий поток                              : 2007 Кбит/сек
Название фильма                          : Land of the Lost (2009)
Режиссёр                                 : ELEKTRI4KA [uniongang.ru]
Программа кодирования                    : VirtualDubMod 1.5.4.1 (build 2178/release)
Библиотека кодирования                   : VirtualDubMod build 2178/release
Правообладатель                          : http://uniongang.ru/

Видео
Идентификатор                            : 0
Формат                                   : MPEG-4 Visual
Профиль формата                          : Advanced Simple@L5
Параметр BVOP формата                    : 3
Параметр QPel формата                    : Нет
Параметр GMC формата                     : Без точки перехода
Параметр матрицы формата                 : Default (H.263)
Идентификатор кодека                     : XVID
Идентификатор кодека/Подсказка           : XviD
Продолжительность                        : 1 ч. 37 м.
Битрейт                                  : 1549 Кбит/сек
Ширина                                   : 704 пикселя
Высота                                   : 384 пикселя
Соотношение сторон                       : 1,85:1
Частота кадров                           : 25,000 кадров/сек
Цветовое пространство                    : YUV
Субдискретизация насыщенности            : 4:2:0
Битовая глубина                          : 8 бит
Тип развёртки                            : Прогрессивная
Метод сжатия                             : С потерями
Бит/(Пиксели*Кадры)                      : 0.229
Размер потока                            : 1,05 Гбайт (77%)
Заголовок                                : Land of the Lost (2009)
Библиотека кодирования                   : XviD 1.2.0.dev47 (UTC 2006-11-01)

Аудио
Идентификатор                            : 1
Формат                                   : AC-3
Формат/Информация                        : Audio Coding 3
Расширение режима                        : CM (complete main)
Параметр Endianness формата              : Big
Идентификатор кодека                     : 2000
Продолжительность                        : 1 ч. 37 м.
Вид битрейта                             : Постоянный
Битрейт                                  : 448 Кбит/сек
Каналы                                   : 6 каналов
Расположение каналов                     : Front: L C R, Side: L R, LFE
Частота                                  : 48,0 КГц
Битовая глубина                          : 16 бит
Метод сжатия                             : С потерями
Задержка видео                           : 500 мс.
Размер потока                            : 312 Мбайт (22%)
Выравнивание                             : Разделение по промежуткам
Продолжительность промежутка             : 40  мс. (1,00 видеокадр)
Время предзагрузки промежутка            : 500  мс.
Написано:  04 Фев 2013 19:16   Отредактировано: alukard
А стоит офф прошивка ? По файлу, переименовать или добавить пару английских букв вначале названия файла, также можно решить по другому http://wdhd.ru/board/index.php?a=vtopic&t=1246 .
__________________
Sharp LC-32X20RU + WDTV Gen2 + WDTV Live (если понравилось 41001352107159 яндекс)
Написано:  04 Фев 2013 19:24
прошивка официальная... есть другие файлы с рускими именами, проблем нет. Еще подозрение,что раньше все воспроизводилось, затем перестало...попробуем перекопировать. спасибо.
Написано:  21 Мар 2013 01:00
Привет!
Подскажите почему не играет?
Перегнал со старых дисков два десятка фильмов, жалко времени, а они не воспроизводятся. Прошивку обновил, старые фильмы играют, "новые" переписанные - нет! Переписывал при помощи Bigasoft DVD to AVI Converter 3.1.11.4743 Portable. Инфу одного из не играющих фильмов прикладываю (на компе проигрываются без проблем). Проигрыватель WD TV HD 2gtn, прошивка wdtv_g2_ext_v200.

Полное имя                               : C:\BOB_DYLAN\Title_1.avi
Формат                                   : AVI
Формат/Информация                        : Audio Video Interleave
Размер файла                             : 579 Мбайт
Продолжительность                        : 1 ч. 0 м.
Общий поток                              : 1342 Кбит/сек
Программа кодирования                    : Lavf53.18.0

Видео
Идентификатор                            : 0
Формат                                   : MPEG-4 Visual
Идентификатор кодека                     : MP43
Идентификатор кодека/Информация          : Microsoft MPEG-4 v3 (pre-standard)
Идентификатор кодека/Подсказка           : Microsoft
Продолжительность                        : 1 ч. 0 м.
Битрейт                                  : 1200 Кбит/сек
Ширина                                   : 854 пикселя
Высота                                   : 480 пикселей
Соотношение сторон                       : 16:9
Частота кадров                           : 29,970 кадров/сек
Метод сжатия                             : С потерями
Бит/(Пиксели*Кадры)                      : 0.098
Размер потока                            : 518 Мбайт (89%)

Аудио
Идентификатор                            : 1
Формат                                   : MPEG Audio
Версия формата                           : Version 1
Профиль формата                          : Layer 3
Режим                                    : Joint stereo
Расширение режима                        : MS Stereo
Идентификатор кодека                     : 55
Идентификатор кодека/Подсказка           : MP3
Продолжительность                        : 1 ч. 0 м.
Вид битрейта                             : Постоянный
Битрейт                                  : 128 Кбит/сек
Каналы                                   : 2 канала
Частота                                  : 44,1 КГц
Метод сжатия                             : С потерями
Размер потока                            : 55,3 Мбайт (10%)
Выравнивание                             : Соединение по промежуткам
Продолжительность промежутка             : 26  мс. (0,78 видеокадр)

Спасибо.
Написано:  21 Мар 2013 07:39
Неудачно перегнали, такого кодека нет MP43 у вдшки.
__________________
Sharp LC-32X20RU + WDTV Gen2 + WDTV Live (если понравилось 41001352107159 яндекс)
Написано:  25 Мар 2013 01:35
А добавить его, никак?
Спасибо
Написано:  25 Мар 2013 07:59
Если бы это было так просто, у нас бы уже были прошивки с расширенной поддержкой форматов. Перекодируйте с нормальным кодеком, которые заявлены.
__________________
Sharp LC-32X20RU + WDTV Gen2 + WDTV Live (если понравилось 41001352107159 яндекс)
Написано:  25 Мар 2013 20:59   Отредактировано: vova933
Спасибо
Написано:  20 Июн 2013 20:57
Народ !
Подскажите.
На WDTV Gen2 не проигрывается avi с такими характеристиками:

General
Complete name                            : C:\Documents and Settings\MIKE\Рабочий стол\Маша в саду\Отчетный концерт (Ирина Артемьевна 2013)\Отчётный 1-1 часть.avi
Format                                   : AVI
Format/Info                              : Audio Video Interleave
Commercial name                          : DVCPRO
Format profile                           : OpenDML
File size                                : 2.48 GiB
Duration                                 : 11mn 42s
Overall bit rate mode                    : Constant
Overall bit rate                         : 30.3 Mbps

Video
ID                                       : 0
Format                                   : DV
Commercial name                          : DVCPRO
Codec ID                                 : dvsd
Codec ID/Hint                            : Sony
Duration                                 : 11mn 42s
Bit rate mode                            : Constant
Bit rate                                 : 24.4 Mbps
Encoded bit rate                         : 28.8 Mbps
Width                                    : 720 pixels
Height                                   : 576 pixels
Display aspect ratio                     : 4:3
Frame rate mode                          : Constant
Frame rate                               : 25.000 fps
Standard                                 : PAL
Color space                              : YUV
Chroma subsampling                       : 4:2:0
Bit depth                                : 8 bits
Scan type                                : Interlaced
Scan order                               : Bottom Field First
Compression mode                         : Lossy
Bits/(Pixel*Frame)                       : 2.357
Stream size                              : 2.36 GiB (95%)

Audio
ID                                       : 1
Format                                   : PCM
Format settings, Endianness              : Little
Format settings, Sign                    : Signed
Codec ID                                 : 1
Duration                                 : 11mn 42s
Bit rate mode                            : Constant
Bit rate                                 : 1 536 Kbps
Channel(s)                               : 2 channels
Sampling rate                            : 48.0 KHz
Bit depth                                : 16 bits
Stream size                              : 129 MiB (5%)
Alignment                                : Aligned on interleaves
Interleave, duration                     : 480 ms (12.00 video frames)

В чём может быть дело?
Написано:  20 Июн 2013 21:41
Такой кодек незаявлен - Commercial name : DVCPRO
Codec ID  : dvsd , перекодировать.
__________________
Sharp LC-32X20RU + WDTV Gen2 + WDTV Live (если понравилось 41001352107159 яндекс)
Написано:  24 Июл 2013 21:23
Простите, если что-то не так спрошу...
А чем и с какими характеристиками можно перекодировать, имея в своём распоряжении только этот avi-шник. Или нужен исходник?
P.S. просто никогда не занимался перекодировкой.
Написано:  24 Июл 2013 21:30
В любом удобном для вас перекодировщике, кодек для нового файла выбрать Xvid или Divx(эти кодеки есть в вдшке).
__________________
Sharp LC-32X20RU + WDTV Gen2 + WDTV Live (если понравилось 41001352107159 яндекс)
Написано:  22 Июл 2014 07:59
Не буду создавать отдельную тему, WDTV Gen2 v1.01.77, все чаще стали попадаться avi файлы со следующей проблемой, выбивает на половине фильма в меню, попытка перемотать фильм ни к чему не приводит, время перемотки идет, но при остановке фильм начинается сначала. В фак написано что могут быть проблемы с параметром GMC больше 1, но у всех практически он равен "Без точки перехода", и у тех которые нормально перематываются и у проблемных, инфу одного прилагаю.

[ Скрытый текст ]
Написано:  22 Июл 2014 11:58
Скорее всего файлы битые,как качаете и откуда ?
__________________
Sharp LC-32X20RU + WDTV Gen2 + WDTV Live (если понравилось 41001352107159 яндекс)
Написано:  22 Июл 2014 13:03   Отредактировано: Avstes
С NoNaMe Club, в основном, вышеуказанный по ссылке http://nnm-club.me/forum/viewtopic.php?t=805565 клиент BitTorrent 7.2.1, на компе воспроизводиться нормально. Кстати попадаются что и не выбивает, идет нормально, но перемотка невозможна.
Написано:  22 Июл 2014 13:27
Если раздача осталась перехешируйете в торренте,будет что-то докачивать,были ошибки при скачивании.
__________________
Sharp LC-32X20RU + WDTV Gen2 + WDTV Live (если понравилось 41001352107159 яндекс)
Написано:  22 Июл 2014 21:11   Отредактировано: Avstes
Как я и думал ошибок торрента не было, проверил хэши. Пропуски в видеофайле к таким последствиям не приводят. Ради интереса перекодировал файл AVI ReComp 1.5.6, все стало нормально. Вот данные о перекодированном:

[ Скрытый текст ]


Буду искать что то общее в них.
Написано:  22 Июл 2014 21:29
Ну явное отличие пропал пункт - Профиль формата  : OpenDML и изменился Параметр BVOP формата.
Вдшка просто к любым ошибкам в видеофайлах более чувствительна, другие файлы тогда тоже переделайете,если ошибки были небольшие, то тоже пойдут нормально.
__________________
Sharp LC-32X20RU + WDTV Gen2 + WDTV Live (если понравилось 41001352107159 яндекс)
Написано:  22 Июл 2014 23:04
Нашел про BVOP - http://rutracker.org/forum/viewtopic.php?t=4452634 и там упоминается про его влияние на аппаратных плеерах при величине больше одного, надо будет проэксперементировать.

Поделитесь со своими друзьями в соцсетях:

WDTV Forum / Форум про WD TV Gen2 / Опыт эксплуатации / Не воспроизводит .AVI расширение.