Неофициальный клуб пользователей HD видео плеера WD TV


»Юзер: »Пароль:   Запомнить? 
Написано:  24 Дек 2009 21:13
Форумчане,такой вопросик.Скачал трилогию Перевозчика в BD-remuxe,хотел немного уменьшить размер фильмов затолкав их в мкв мерж и вырезав ненужный мне звук,но он гад пишет ошибку FAILED 3.Видео дорога в фильмах mpeg2.Может не этой прогой надо перегонять фильмы?
Написано:  24 Дек 2009 21:34   Отредактировано: touch
а чего говорит mediainfo на этот счёт?
вообще ремуксы часто в .ts/m2ts запихивают - если так, тогда tsMuxer тебе нужен..
__________________
Где купить WD TV: Live Streaming
Написано:  24 Дек 2009 22:16
спасибо touch попробую им...ну вот вся инфа
General
Полное имя                       : H:\Transporter_BDRemux.mkv
Формат                           : Matroska
Размер файла                     : 14.1 GiB
Продолжительность                : 1h 32mn
Общий поток                      : 21.9 Mbps
Фильм                            : Remux by PUPs
Дата кодирования                 : UTC 2008-04-21 09:05:22
Программа-кодировщик             : mkvmerge v2.2.0 ('Turn It On Again') built on Mar  4 2008 12:58:26
Библиотека кодирования           : libebml v0.7.7 + libmatroska v0.8.1

Video
Идентификатор                    : 1
Формат                           : MPEG Video
Версия формата                   : Version 2
Профайл формата                  : Main@High
Параметры матрицы формата        : Default
Идентификатор кодека             : V_MPEG2
Идентификатор кодека/Информация  : MPEG 1 or 2 Video
Продолжительность                : 1h 32mn
Вид битрейта                     : Variable
Битрейт                          : 18.3 Mbps
Номинальный битрейт              : 30.0 Mbps
Ширина                           : 1 920 pixels
Высота                           : 1 080 pixels
Соотношение кадра                : 16:9
Частота кадров                   : 23.976 fps
Колориметрия                     : 4:2:0
Тип развёртки                    : Progressive
Бит/(Пиксели*Кадры)              : 0.369
Размер потока                    : 11.8 GiB (84%)
Заголовок                        : The_Transporter

Audio #1
Идентификатор                    : 2
Формат                           : AC-3
Формат/Информация                : Audio Coding 3
Идентификатор кодека             : A_AC3
Продолжительность                : 1h 32mn
Вид битрейта                     : Constant
Битрейт                          : 384 Kbps
Канал(ы)                         : 6 channels
Расположение каналов             : Front: L C R, Surround: L R, LFE
Частота                          : 48.0 KHz
Размер потока                    : 253 MiB (2%)
Заголовок                        : Ukranian AC3 (Mnogogolosiy)
Язык                             : Ukrainian

Audio #2
Идентификатор                    : 3
Формат                           : AC-3
Формат/Информация                : Audio Coding 3
Идентификатор кодека             : A_AC3
Продолжительность                : 1h 32mn
Вид битрейта                     : Constant
Битрейт                          : 384 Kbps
Канал(ы)                         : 6 channels
Расположение каналов             : Front: L C R, Surround: L R, LFE
Частота                          : 48.0 KHz
Размер потока                    : 253 MiB (2%)
Заголовок                        : Russian AC3 (Dubliazh)
Язык                             : Russian

Audio #3
Идентификатор                    : 4
Формат                           : DTS
Формат/Информация                : Digital Theater Systems
Идентификатор кодека             : A_DTS
Продолжительность                : 1h 32mn
Вид битрейта                     : Constant
Битрейт                          : 1 510 Kbps
Канал(ы)                         : 6 channels
Расположение каналов             : Front: L C R, Surround: L R, LFE
Частота                          : 48.0 KHz
Разрешение                       : 24 bits
Размер потока                    : 995 MiB (7%)
Заголовок                        : English DTS
Язык                             : English

Audio #4
Идентификатор                    : 5
Формат                           : AC-3
Формат/Информация                : Audio Coding 3
Идентификатор кодека             : A_AC3
Продолжительность                : 1h 32mn
Вид битрейта                     : Constant
Битрейт                          : 384 Kbps
Канал(ы)                         : 6 channels
Расположение каналов             : Front: L C R, Surround: L R, LFE
Частота                          : 48.0 KHz
Размер потока                    : 253 MiB (2%)
Заголовок                        : Russian AC3 (Mnogogolosiy)
Язык                             : Russian

Audio #5
Идентификатор                    : 6
Формат                           : AC-3
Формат/Информация                : Audio Coding 3
Идентификатор кодека             : A_AC3
Продолжительность                : 1h 32mn
Вид битрейта                     : Constant
Битрейт                          : 192 Kbps
Канал(ы)                         : 2 channels
Расположение каналов             : L R
Частота                          : 48.0 KHz
Размер потока                    : 127 MiB (1%)
Заголовок                        : Russian AC3 (Odnogolosiy)
Язык                             : Russian

Audio #6
Идентификатор                    : 7
Формат                           : AC-3
Формат/Информация                : Audio Coding 3
Идентификатор кодека             : A_AC3
Продолжительность                : 1h 32mn
Вид битрейта                     : Constant
Битрейт                          : 224 Kbps
Канал(ы)                         : 2 channels
Расположение каналов             : L R
Частота                          : 48.0 KHz
Размер потока                    : 148 MiB (1%)
Заголовок                        : Comentary by J. Statham, S. Chasman
Язык                             : English

Text #1
Идентификатор                    : 8
Формат                           : UTF-8
Идентификатор кодека             : S_TEXT/UTF8
Идентификатор кодека/Информация  : UTF-8 Plain Text
Заголовок                        : Russian (Dubliazh)
Язык                             : Russian

Text #2
Идентификатор                    : 9
Формат                           : UTF-8
Идентификатор кодека             : S_TEXT/UTF8
Идентификатор кодека/Информация  : UTF-8 Plain Text
Заголовок                        : Russian
Язык                             : Russian

Text #3
Идентификатор                    : 10
Формат                           : UTF-8
Идентификатор кодека             : S_TEXT/UTF8
Идентификатор кодека/Информация  : UTF-8 Plain Text
Заголовок                        : English
Язык                             : English
Написано:  25 Дек 2009 10:54
да вроде она, матрёшка! странно.. а какую именно ошибку он пишет, погляди? и опиши ситуацию чуть подробнее (делаю то, потом то, жму кнопку = ошибка.. какая именно?).. для начала - проверь место на дисках (там куда писать пытаешься) и избавься от кириллицы в именах файлов и путях!
__________________
Где купить WD TV: Live Streaming
Написано:  25 Дек 2009 13:06
cтранная штука однако...это вчера на работе мкв мерж писал ошибку,а дома нормально перегоняет,зато тс муксер сделал около 5 гигов от фильма и написал мне- пошел нафиг с новым годом

Поделитесь со своими друзьями в соцсетях: