Неофициальный клуб пользователей HD видео плеера WD TV


»Юзер: »Пароль:   Запомнить? 
WDTV Forum / Форум про WD TV Gen1 / Опыт эксплуатации / Скажите пожалста кто знает
Написано:  19 Ноя 2009 18:16
какой у него уровень выходного сигнала на аудиовыходах  RCA  ?

спасибо!
Написано:  19 Ноя 2009 20:27
в каких измерять единицах,а главное для чего?
__________________
TV Panasonic R42PY85,WDTV-1,WD My Book 1Tb,HDD Lacie 320Gb,Power Console Pure AV PF50,DVD-Video Denon DVD-2800,DVD-Audio Marantz DV6500,CD Audio Innovations Alto,H\A D10 Cobra,A\V Technics SA-DA8,Audio Pro Cinema 5.1,XBOX 360 Elite.
Написано:  21 Ноя 2009 02:11
Цитата:
какой у него уровень выходного сигнала на аудиовыходах  RCA  ?

спасибо!
зачем тебе нужны эти данные?
__________________
REMUX FOREVER

Watching HD on: LCD Sharp 46XL2E, Yamaha RX-V563, Yamaha NS-777, Yamaha NS-333, Yamaha NS-444, Yamaha YST-SW215, WD TV, My Book EE 1 TB (3), HP SE 1.5 ТБ (1)|| DVD watching on: Yamaha DVD-S663|| DVD-Audio, SACD: Onkyo DV-SP504E
Написано:  22 Ноя 2009 00:02
Были замечены такие вещи:
1.Записываю файл на жесткий подсоединяю его WD включаю телевизор, а файла нет, в чем моет быть дело?
2.Некоторые AVI файлы не перематываются или вовсе с того не сего проходит пол фильма и выбрасывает в основное меню, эта фигня особенно часто!
Написано:  22 Ноя 2009 00:38
1. файл точно видео?
какое расширение у файла? wdtv фильтрует файлы по типу (т.е. в video будут видны только фильмы, в music - музыка и т.п.)

2. ну может файл криво собран, бывает
дай mediainfo на него
поглядим..
__________________
Где купить WD TV: Live Streaming
Написано:  22 Ноя 2009 02:01
Цитата:
1. файл точно видео?
какое расширение у файла? wdtv фильтрует файлы по типу (т.е. в video будут видны только фильмы, в music - музыка и т.п.)

Здесь я не мог ошибиться так как получалось раза с пятого тоже самое!
Вот медиа инфа файла не перематывается и вылетает примерно на середине фильма в корень

General
Complete name                    : E:\Фильмы HDTVRip\Сверхестественное_Supernatural_5\supernatural.s05e09.proper.hdtvrip.rus.novafilm.tv.avi
Format                           : AVI
Format/Info                      : Audio Video Interleave
File size                        : 392 MiB
Duration                         : 40mn 54s
Overall bit rate                 : 1 339 Kbps
Writing application              : VirtualDubMod 1.5.10.2 (build 2542/release)
Writing library                  : VirtualDubMod build 2542/release

Video
ID                               : 0
Format                           : MPEG-4 Visual
Format settings, BVOP            : Yes
Format settings, QPel            : No
Format settings, GMC             : No warppoints
Format settings, Matrix          : Default (H.263)
Muxing mode                      : Packed bitstream
Codec ID                         : DX50
Codec ID/Hint                    : DivX 5
Duration                         : 40mn 54s
Bit rate                         : 1 069 Kbps
Width                            : 624 pixels
Height                           : 352 pixels
Display aspect ratio             : 16:9
Frame rate                       : 23.976 fps
Resolution                       : 24 bits
Colorimetry                      : 4:2:0
Scan type                        : Progressive
Bits/(Pixel*Frame)               : 0.203
Stream size                      : 313 MiB (80%)
Writing library                  : DivX 6.8.3 (UTC 2008-06-07)

Audio #1
ID                               : 1
Format                           : MPEG Audio
Format version                   : Version 1
Format profile                   : Layer 3
Codec ID                         : 55
Codec ID/Hint                    : MP3
Duration                         : 40mn 54s
Bit rate mode                    : Constant
Bit rate                         : 128 Kbps
Channel(s)                       : 2 channels
Sampling rate                    : 48.0 KHz
Resolution                       : 16 bits
Stream size                      : 37.5 MiB (10%)
Alignment                        : Aligned on interleaves
Interleave, duration             : 42 ms (1.00 video frame)
Interleave, preload duration     : 504 ms

Audio #2
ID                               : 2
Format                           : MPEG Audio
Format version                   : Version 1
Format profile                   : Layer 3
Codec ID                         : 55
Codec ID/Hint                    : MP3
Duration                         : 40mn 54s
Bit rate mode                    : Constant
Bit rate                         : 128 Kbps
Channel(s)                       : 2 channels
Sampling rate                    : 48.0 KHz
Resolution                       : 16 bits
Stream size                      : 37.5 MiB (10%)
Alignment                        : Aligned on interleaves
Interleave, duration             : 42 ms (1.00 video frame)
Interleave, preload duration     : 504 ms
Написано:  22 Ноя 2009 13:04   Отредактировано: touch
ну попробуй его в матрёшку (mkv) перемуксить, с помощью MKVmerge.. может сама avi'шка криво собрана, непонятно.. в разделе wdtv faq есть описание проги этой
__________________
Где купить WD TV: Live Streaming
Написано:  22 Ноя 2009 14:03
да я ей пользуюсь постоянно и без фака смогу просто было быстрее на компе досмотреть

Поделитесь со своими друзьями в соцсетях:

WDTV Forum / Форум про WD TV Gen1 / Опыт эксплуатации / Скажите пожалста кто знает