Неофициальный клуб пользователей HD видео плеера WD TV


»Юзер: »Пароль:   Запомнить? 
WDTV Forum / Форум про HD фильмы / Эти фильмы не идут / Apocalypto.2006.AVC.BluRay нет звука
Написано:  06 Ноя 2009 17:22
Помогите! В начале фильма звук есть минуты 2,потом глухо!Также звук появляется при переключении дорожек.
Характеристики:
General
ID                               : 1
Complete name                    : E:\Новая папка\Apocalypto.2006.AVC.BluRay.ts
Format                           : MPEG-TS
File size                        : 24.6 GiB
Duration                         : 2h 18mn
Overall bit rate                 : 25.5 Mbps
Maximum Overall bit rate         : 35.5 Mbps

Video
ID                               : 4113 (0x1011)
Menu ID                          : 1 (0x1)
Format                           : AVC
Format/Info                      : Advanced Video Codec
Format profile                   : High@L4.1
Format settings, CABAC           : Yes
Format settings, ReFrames        : 3 frames
Duration                         : 2h 18mn
Bit rate                         : 22.7 Mbps
Width                            : 1 920 pixels
Height                           : 1 080 pixels
Display aspect ratio             : 16:9
Frame rate                       : 23.976 fps
Standard                         : NTSC
Resolution                       : 24 bits
Colorimetry                      : 4:2:0
Scan type                        : Progressive
Bits/(Pixel*Frame)               : 0.457
Stream size                      : 21.9 GiB (89%)

Audio #1
ID                               : 4352 (0x1100)
Menu ID                          : 1 (0x1)
Format                           : AC-3
Format/Info                      : Audio Coding 3
Duration                         : 2h 18mn
Bit rate mode                    : Constant
Bit rate                         : 384 Kbps
Channel(s)                       : 6 channels
Channel positions                : Front: L C R, Surround: L R, LFE
Sampling rate                    : 48.0 KHz
Stream size                      : 380 MiB (2%)

Audio #2
ID                               : 4353 (0x1101)
Menu ID                          : 1 (0x1)
Format                           : AC-3
Format/Info                      : Audio Coding 3
Duration                         : 2h 18mn
Bit rate mode                    : Constant
Bit rate                         : 640 Kbps
Channel(s)                       : 6 channels
Channel positions                : Front: L C R, Surround: L R, LFE
Sampling rate                    : 48.0 KHz
Stream size                      : 633 MiB (3%)
Написано:  06 Ноя 2009 17:53
походу какой то глюк
Написано:  06 Ноя 2009 18:08
а попробуй в MKV его запихнуть
__________________
Где купить WD TV: Live Streaming
Написано:  06 Ноя 2009 18:24
Какой прогой!
Написано:  06 Ноя 2009 18:44
попробуй MKVmerge
только я не уверен, что он .ts понимает (можно в .mpg переименовать, думаю)
__________________
Где купить WD TV: Live Streaming
Написано:  06 Ноя 2009 18:49
Спасибо! Буду пробовать.
Написано:  09 Ноя 2009 23:44
Сделал через Xilisoft HD Video Converter!
Все равно спасибо!

Поделитесь со своими друзьями в соцсетях:

WDTV Forum / Форум про HD фильмы / Эти фильмы не идут / Apocalypto.2006.AVC.BluRay нет звука