Неофициальный клуб пользователей HD видео плеера WD TV


»Юзер: »Пароль:   Запомнить? 
WDTV Forum / Форум про HD фильмы / Эти фильмы не идут / Не поддерживает формат
Написано:  31 Окт 2009 08:53
В чём проблема? Менял расширение на mkv - не прокатило.

General
ID                               : 1
Complete name                    : C:\Видео\IMAX - Amazon 1080 1920x1080i.avi
Format                           : MPEG-TS
File size                        : 3.11 GiB
Duration                         : 38mn 25s
Overall bit rate                 : 11.6 Mbps

Video
ID                               : 17 (0x11)
Menu ID                          : 1 (0x1)
Format                           : MPEG Video
Format version                   : Version 2
Format profile                   : Main@High
Format settings, Matrix          : Default
Duration                         : 38mn 25s
Bit rate mode                    : Variable
Bit rate                         : 10.4 Mbps
Nominal bit rate                 : 80.0 Mbps
Width                            : 1 920 pixels
Height                           : 1 080 pixels
Display aspect ratio             : 16:9
Frame rate                       : 29.970 fps
Standard                         : Component
Colorimetry                      : 4:2:0
Bits/(Pixel*Frame)               : 0.167
Stream size                      : 2.79 GiB (90%)

Audio
ID                               : 20 (0x14)
Menu ID                          : 1 (0x1)
Format                           : AC-3
Format/Info                      : Audio Coding 3
Duration                         : 38mn 25s
Bit rate mode                    : Constant
Bit rate                         : 384 Kbps
Channel(s)                       : 6 channels
Channel positions                : Front: L C R, Surround: L R, LFE
Sampling rate                    : 48.0 KHz
Video delay                      : -498ms
Stream size                      : 106 MiB (3%)
Language                         : English
Написано:  31 Окт 2009 10:21
Цитата:
В чём проблема? Менял расширение на mkv - не прокатило.

поменяй на .mpg
__________________
Где купить WD TV: Live Streaming
Написано:  31 Окт 2009 11:20
Или попробовать удалить папку .wdtv с флэшки/хдд.
__________________

Поделитесь со своими друзьями в соцсетях:

WDTV Forum / Форум про HD фильмы / Эти фильмы не идут / Не поддерживает формат