Неофициальный клуб пользователей HD видео плеера WD TV


»Юзер: »Пароль:   Запомнить? 
WDTV Forum / Форум про HD фильмы / Эти фильмы играются / Люди Икс: Начало. Росомаха / X-Men Origins: Wolverine (2009) 1080p Blu-Ray Remu
Написано:  26 Окт 2009 22:53
Люди Икс: Начало. Росомаха / X-Men Origins: Wolverine ( 2009 ) 1080p Blu-Ray Remux

статус идёт без проблем Видео дорога одна из самых чистых что встречал в фильмах.



Информация о фильме
Название: Люди Икс: Начало. Росомаха
Оригинальное название: X-Men Origins: Wolverine
Год выхода: 2009
Жанр: Экшн, фантастика, триллер
Режисcер: Гэвин Худ / Gavin Hood
В ролях: Хью Джекман, Райан Рейнольдс, Лив Шрайбер, Доминик Монахэн, Уилл Ай Эм, Линн Коллинз, Дэнни Хьюстон, Дэниэл Хенни, Тейлор Китч, Кевин Дюран, Скотт Эдкинс

О фильме:
Предыстория «Людей Икс», рассказывающая о военном прошлом Логана и обстоятельствах, при которых он стал обладателем адамантиевого скелета. 



Выпущено: США, Twentieth Century-Fox Film Corporation
Продолжительность: 01:47:24

Файл
Качество: 1080p Blu-Ray Remux
Видео: H.264/AVC, NTSC 23.976, 1920x1080, ~35000 кбит/с
Исходник: X-Men Origins Wolverine 2009 Blu-ray 1080p AVC DTS-DON
Звук #1: Украинский (Дублированный), AC3, 6ch (L, C, R, Ls, Rs +LFE), 384 кбит/с
Звук #2: Русский (Дублированный), DTS, 6ch (L, C, R, Ls, Rs +LFE), 768 кбит/с
Звук #3: Английский (Оригинал), DTS, 6ch (L, C, R, Ls, Rs +LFE), 768 кбит/с 
Субтитры: Украинский(надписи и прочее), Украинский(полные), Русский(надписи и прочее), Русский(полные)

Оставлены: русская, английская дороги и русские субтитры. Были добавлены: украинская дорога, украинские субтитры(2),

gold разадача: http://tracker.0day.kiev.ua/details.php?id=65408

медиаинфо:

General
ID                               : 1
Complete name                    : F:\Torent\X-Men.Origins.Wolverine.2009.BDRemux.1080p.H264.DTS.eng.ru.ukr\BDMV\STREAM\00000.m2ts
Format                           : BDAV
Format/Info                      : BluRay Video
File size                        : 29.1 GiB
Duration                         : 1h 47mn
Overall bit rate                 : 38.8 Mbps
Maximum Overall bit rate         : 35.5 Mbps

Video
ID                               : 4113 (0x1011)
Menu ID                          : 1 (0x1)
Format                           : AVC
Format/Info                      : Advanced Video Codec
Format profile                   : High@L4.1
Format settings, CABAC           : Yes
Format settings, ReFrames        : 4 frames
Duration                         : 1h 47mn
Bit rate                         : 35.3 Mbps
Width                            : 1 920 pixels
Height                           : 1 080 pixels
Display aspect ratio             : 16/9
Frame rate                       : 23.976 fps
Resolution                       : 24 bits
Colorimetry                      : 4:2:0
Scan type                        : Progressive
Bits/(Pixel*Frame)               : 0.711
Stream size                      : 26.5 GiB (91%)

Audio #1
ID                               : 4352 (0x1100)
Menu ID                          : 1 (0x1)
Format                           : AC-3
Format/Info                      : Audio Coding 3
Duration                         : 1h 47mn
Bit rate mode                    : Constant
Bit rate                         : 384 Kbps
Channel(s)                       : 6 channels
Channel positions                : Front: L C R, Surround: L R, LFE
Sampling rate                    : 48.0 KHz
Stream size                      : 295 MiB (1%)
Language                         : Ukrainian

Audio #2
ID                               : 4353 (0x1101)
Menu ID                          : 1 (0x1)
Format                           : DTS
Format/Info                      : Digital Theater Systems
Duration                         : 1h 47mn
Bit rate mode                    : Constant
Bit rate                         : 755 Kbps
Channel(s)                       : 6 channels
Channel positions                : Front: L C R, Surround: L R, LFE
Sampling rate                    : 48.0 KHz
Resolution                       : 24 bits
Stream size                      : 580 MiB (2%)
Language                         : Russian

Audio #3
ID                               : 4354 (0x1102)
Menu ID                          : 1 (0x1)
Format                           : DTS
Format/Info                      : Digital Theater Systems
Duration                         : 1h 47mn
Bit rate mode                    : Constant
Bit rate                         : 755 Kbps
Channel(s)                       : 6 channels
Channel positions                : Front: L C R, Surround: L R, LFE
Sampling rate                    : 48.0 KHz
Resolution                       : 24 bits
Stream size                      : 580 MiB (2%)
Language                         : English

Text #1
ID                               : 4608 (0x1200)
Menu ID                          : 1 (0x1)
Format                           : PGS
Language                         : Ukrainian

Text #2
ID                               : 4609 (0x1201)
Menu ID                          : 1 (0x1)
Format                           : PGS
Language                         : Ukrainian

Text #3
ID                               : 4610 (0x1202)
Menu ID                          : 1 (0x1)
Format                           : PGS
Language                         : Russian

Text #4
ID                               : 4611 (0x1203)
Menu ID                          : 1 (0x1)
Format                           : PGS
Language                         : Russian
__________________
REMUX FOREVER

Watching HD on: LCD Sharp 46XL2E, Yamaha RX-V563, Yamaha NS-777, Yamaha NS-333, Yamaha NS-444, Yamaha YST-SW215, WD TV, My Book EE 1 TB (3), HP SE 1.5 ТБ (1)|| DVD watching on: Yamaha DVD-S663|| DVD-Audio, SACD: Onkyo DV-SP504E
Написано:  26 Окт 2009 23:06
добавил, спасиб )
__________________
Где купить WD TV: Live Streaming

Поделитесь со своими друзьями в соцсетях:

WDTV Forum / Форум про HD фильмы / Эти фильмы играются / Люди Икс: Начало. Росомаха / X-Men Origins: Wolverine (2009) 1080p Blu-Ray Remu