Неофициальный клуб пользователей HD видео плеера WD TV


»Юзер: »Пароль:   Запомнить? 
WDTV Forum / Форум про HD фильмы / Эти фильмы играются / 13-й район: Ультиматум / Banlieue 13 Ultimatum (2009) Blu-Ray Remux
Написано:  11 Окт 2009 18:49   Отредактировано: admin
13-й район: Ультиматум / Banlieue 13 Ultimatum (2009) Blu-Ray Remux

статус идёт без глюков



Информация о фильме
Название: 13-й район: Ультиматум
Оригинальное название: Banlieue 13 Ultimatum
Год выхода: 2009
Жанр: боевик, триллер
Режисcер: Патрик Алессандрин
В ролях: Дэвид Белль, Франс Бойер, Даниэль Дюваль, Мусса Мааскри, Милан Ойданич, Алаа Омузун, Сирил Раффаэлли, Элоди Юнг

О фильме:
13-й район, два года спустя. Стена, отделяющая неблагополучный пригород от столицы, стала больше, выше и отчеркнула от цивилизации еще больше кварталов. По эту сторону стены правят пять банд, контролирующих этнические районы. Правительство как никогда заинтересовано в «урегулировании проблемы» и разведывательные службы охотно инициируют беспорядки. Лейто и Дамьену снова приходится объединить усилия, чтобы спасти Париж от хаоса.


Выпущено: Франция, Europa Corp.
Продолжительность: 01:40:45

Файл
Качество: Blu-Ray Remux
Видео: H.264/AVC, NTSC 23.976, 1920x1080, 30003 кбит/с
Звук #1: Русский (Дублированный), DTS, 6ch (L, C, R, Ls, Rs +LFE), 768 кбит/с |Лицензия|
Звук #2: Французкий (Оригинал), DTS-HD MA, 6ch (L, C, R, Ls, Rs +LFE), 7454 кбит/с
Субтитры: Английский

Релиз группы:

HDv 0day Team

Gold раздача:
http://tracker.0day.kiev.ua/details.php?id=68981

mediainfo:

General
ID                               : 1
Complete name                    : F:\Torent\Banlieue.13.Ultimatum.2009.BluRay.Remux.DTS-HD.MA.AVC-HDv0T\BDMV\STREAM\00000.m2ts
Format                           : BDAV
Format/Info                      : BluRay Video
File size                        : 28.3 GiB
Duration                         : 1h 40mn
Overall bit rate                 : 40.3 Mbps
Maximum Overall bit rate         : 35.5 Mbps

Video
ID                               : 4113 (0x1011)
Menu ID                          : 1 (0x1)
Format                           : AVC
Format/Info                      : Advanced Video Codec
Format profile                   : High@L4.1
Format settings, CABAC           : Yes
Format settings, ReFrames        : 4 frames
Duration                         : 1h 40mn
Bit rate                         : 32.5 Mbps
Width                            : 1 920 pixels
Height                           : 1 080 pixels
Display aspect ratio             : 16/9
Frame rate                       : 24.000 fps
Standard                         : NTSC
Resolution                       : 24 bits
Colorimetry                      : 4:2:0
Scan type                        : Progressive
Bits/(Pixel*Frame)               : 0.654
Stream size                      : 22.9 GiB (81%)

Audio #1
ID                               : 4352 (0x1100)
Menu ID                          : 1 (0x1)
Format                           : DTS
Format/Info                      : Digital Theater Systems
Duration                         : 1h 40mn
Bit rate mode                    : Constant
Bit rate                         : 755 Kbps
Channel(s)                       : 6 channels
Channel positions                : Front: L C R, Surround: L R, LFE
Sampling rate                    : 48.0 KHz
Resolution                       : 24 bits
Stream size                      : 544 MiB (2%)
Language                         : Russian

Audio #2
ID                               : 4353 (0x1101)
Menu ID                          : 1 (0x1)
Format                           : DTS
Format/Info                      : Digital Theater Systems
Format profile                   : 96/24
Duration                         : 1h 40mn
Bit rate mode                    : Constant
Bit rate                         : 5 359 Kbps
Channel(s)                       : 6 channels
Channel positions                : Front: L C R, Surround: L R, LFE
Sampling rate                    : 96.0 KHz
Resolution                       : 24 bits
Stream size                      : 3.77 GiB (13%)
Language                         : French

Text
ID                               : 4608 (0x1200)
Menu ID                          : 1 (0x1)
Format                           : PGS
Language                         : English
__________________
REMUX FOREVER

Watching HD on: LCD Sharp 46XL2E, Yamaha RX-V563, Yamaha NS-777, Yamaha NS-333, Yamaha NS-444, Yamaha YST-SW215, WD TV, My Book EE 1 TB (3), HP SE 1.5 ТБ (1)|| DVD watching on: Yamaha DVD-S663|| DVD-Audio, SACD: Onkyo DV-SP504E
Написано:  23 Окт 2009 12:25
есть ли смысл сюда выкладывать если они не добавляются в базу
__________________
REMUX FOREVER

Watching HD on: LCD Sharp 46XL2E, Yamaha RX-V563, Yamaha NS-777, Yamaha NS-333, Yamaha NS-444, Yamaha YST-SW215, WD TV, My Book EE 1 TB (3), HP SE 1.5 ТБ (1)|| DVD watching on: Yamaha DVD-S663|| DVD-Audio, SACD: Onkyo DV-SP504E
Написано:  23 Окт 2009 14:45   Отредактировано: touch
хм.. вообще всё что по правилам (медиаинфо + урл) добавляю! но таки да - этот я упустил =)
сорри..
__________________
Где купить WD TV: Live Streaming
Написано:  23 Окт 2009 14:56
порядок.. в базе
__________________
Где купить WD TV: Live Streaming
Написано:  23 Окт 2009 15:15
К вопросу о статусе. У него дорожка в DTS HD - как-же он идет-то?
Написано:  23 Окт 2009 15:21
Audio #1: Russian - обычный dts вроде )
__________________
Где купить WD TV: Live Streaming
Написано:  23 Окт 2009 16:00
Цитата:
К вопросу о статусе. У него дорожка в DTS HD - как-же он идет-то


Цитата:
Audio #1: Russian - обычный dts вроде )


я франсузкую дорожку вообще не тестировал на момент даже идёт ли просто DTS core, а после того как посмотрел её тупо снёс в tsmuxere.
__________________
REMUX FOREVER

Watching HD on: LCD Sharp 46XL2E, Yamaha RX-V563, Yamaha NS-777, Yamaha NS-333, Yamaha NS-444, Yamaha YST-SW215, WD TV, My Book EE 1 TB (3), HP SE 1.5 ТБ (1)|| DVD watching on: Yamaha DVD-S663|| DVD-Audio, SACD: Onkyo DV-SP504E

Поделитесь со своими друзьями в соцсетях:

WDTV Forum / Форум про HD фильмы / Эти фильмы играются / 13-й район: Ультиматум / Banlieue 13 Ultimatum (2009) Blu-Ray Remux