Неофициальный клуб пользователей HD видео плеера WD TV


»Юзер: »Пароль:   Запомнить? 
WDTV Forum / Форум про HD фильмы / Эти фильмы играются / Грань / Fringe (Сезон 1) 720p HDTV
Написано:  11 Окт 2009 13:28
Грань / Fringe (Сезон 1) 720p HDTV

все серии идут без глюков



Сезон 1, Серии 1-20

Названия серий
1. Пилотный эпизод - Pilot
2. История повторяется - The Same Old Story
3. Призрачная сеть - The Same Old Story
4. Прибытие - The Arrival
5. Энергоемкость - Power Hungry
6. Исцеление - The Cure
7. Знакомство с Мистером Джонсом - In Which We Meet Mr. Jones
8. Уравнение - The Equation
9. Наука сна - The Dreamscape
10. Сейф - Safe
11. Рубеж - Bound
12. Вынос мозга - The No-brainer
13. Превращение - The Transformation
14. Способности - Ability
15. Ребенок внутри нас - Inner Child
16. Монстро - Unleashed
17. Ночные Кошмары - Bad Dreams
18. Полночь - Midnight
19. Невыбранная Дорога - The Road Not Taken
20. Нет Ничего Уникального - There's More Than One of Everything

Информация о сериале
Год выхода: 2008-2009
Жанр: Триллер, Драма, Мистика, Научная Фанастика
Создатель: Джей Джей Абрамс
В ролях: Джошуа Джексон, Джон Нобль, Анна Торв и др.

О cериале:
Новый проект гениального Джей Джей Абрамса [Автор идеи и Сценарист - Остаться в живых / LOST].

Агент ФБР Оливия Данэм сталкивается с необъяснимым, но крайне разрушительным феноменом, грозящим человечеству пандемией в случае глобального распространения. В процессе расследования к делу привлекаются доктор Уолтер Бишоп, ученый, много лет назад помещенный в психиатрическую лечебницу, и его сын - Питер.



Озвучка: Студия Новамедиа
Продолжительность: 20 серий по ~ 45 минут

Файл
Качество: 720p HDTV
Видео: x.264, NTSC 23.976, 1280x720, 5648 кбит/с
Звук #1: Русский (Профессиональный (многоголосый)), AC3, 6ch (L, C, R, Ls, Rs +LFE), 384 кбит/с
Звук #2: Английский (Оригинал), AC3, 6ch (L, C, R, Ls, Rs +LFE), 384 кбит/с

Gold раздача: http://kinozal.tv/details.php?id=331315

mediainfo:

General
Complete name                    : F:\Torent\Granj.1.sezon.(20.serij.iz.20).2008.2009.x264.HDTVRip.720p.Novafilm.tv\Granj.sezon.01.serija.18.2008.2009.x264.HDTVRip.720p.Novafilm.tv.mkv
Format                           : Matroska
File size                        : 2.19 GiB
Duration                         : 49mn 49s
Overall bit rate                 : 6 300 Kbps
Encoded date                     : UTC 2009-05-17 11:24:32
Writing application              : mkvmerge v2.5.3 ('Boogie') built on Mar  7 2009 15:00:41
Writing library                  : libebml v0.7.7 + libmatroska v0.8.1

Video
ID                               : 1
Format                           : AVC
Format/Info                      : Advanced Video Codec
Format profile                   : High@L4.1
Format settings, CABAC           : Yes
Format settings, ReFrames        : 6 frames
Muxing mode                      : Container profile=Unknown@4.1
Codec ID                         : V_MPEG4/ISO/AVC
Duration                         : 49mn 46s
Bit rate                         : 5 406 Kbps
Nominal bit rate                 : 6 677 Kbps
Width                            : 1 280 pixels
Height                           : 720 pixels
Display aspect ratio             : 16/9
Frame rate                       : 23.976 fps
Resolution                       : 24 bits
Colorimetry                      : 4:2:0
Scan type                        : Progressive
Bits/(Pixel*Frame)               : 0.245
Stream size                      : 1.88 GiB (86%)
Title                            : Midnight ("Полночь")
Writing library                  : x264 core 67 r1137M 1fda882
Encoding settings                : cabac=1 / ref=6 / deblock=1:-3:-3 / analyse=0x3:0x133 / me=umh / subme=7 / psy_rd=1.0:0.0 / mixed_ref=1 / me_range=24 / chroma_me=1 / trellis=2 / 8x8dct=1 / cqm=0 / deadzone=21,11 / chroma_qp_offset=-4 / threads=3 / nr=0 / decimate=1 / mbaff=0 / bframes=3 / b_pyramid=1 / b_adapt=2 / b_bias=0 / direct=3 / wpredb=1 / keyint=250 / keyint_min=25 / scenecut=40 / rc=2pass / bitrate=6677 / ratetol=1.0 / qcomp=0.60 / qpmin=10 / qpmax=51 / qpstep=4 / cplxblur=20.0 / qblur=0.5 / ip_ratio=1.40 / pb_ratio=1.30 / aq=1:1.00
Language                         : English

Audio #1
ID                               : 2
Format                           : AC-3
Format/Info                      : Audio Coding 3
Codec ID                         : A_AC3
Duration                         : 49mn 49s
Bit rate mode                    : Constant
Bit rate                         : 384 Kbps
Channel(s)                       : 6 channels
Channel positions                : Front: L C R, Surround: L R, LFE
Sampling rate                    : 48.0 KHz
Stream size                      : 137 MiB (6%)
Title                            : Dolby Digital 5.1 @ 384 kbps
Language                         : Russian

Audio #2
ID                               : 3
Format                           : AC-3
Format/Info                      : Audio Coding 3
Codec ID                         : A_AC3
Duration                         : 49mn 49s
Bit rate mode                    : Constant
Bit rate                         : 384 Kbps
Channel(s)                       : 6 channels
Channel positions                : Front: L C R, Surround: L R, LFE
Sampling rate                    : 48.0 KHz
Stream size                      : 137 MiB (6%)
Title                            : Dolby Digital 5.1 @ 384 kbps
Language                         : English
__________________
REMUX FOREVER

Watching HD on: LCD Sharp 46XL2E, Yamaha RX-V563, Yamaha NS-777, Yamaha NS-333, Yamaha NS-444, Yamaha YST-SW215, WD TV, My Book EE 1 TB (3), HP SE 1.5 ТБ (1)|| DVD watching on: Yamaha DVD-S663|| DVD-Audio, SACD: Onkyo DV-SP504E
Написано:  23 Окт 2009 16:14
и это тогда в базу пропущенное
__________________
REMUX FOREVER

Watching HD on: LCD Sharp 46XL2E, Yamaha RX-V563, Yamaha NS-777, Yamaha NS-333, Yamaha NS-444, Yamaha YST-SW215, WD TV, My Book EE 1 TB (3), HP SE 1.5 ТБ (1)|| DVD watching on: Yamaha DVD-S663|| DVD-Audio, SACD: Onkyo DV-SP504E

Поделитесь со своими друзьями в соцсетях:

WDTV Forum / Форум про HD фильмы / Эти фильмы играются / Грань / Fringe (Сезон 1) 720p HDTV