Неофициальный клуб пользователей HD видео плеера WD TV


»Юзер: »Пароль:   Запомнить? 
WDTV Forum / Форум про WD TV Gen2 / Опыт эксплуатации / торможение видео m2ts в созданных в Sony Vegas 10 клипах
Написано:  24 Май 2014 23:22
Всем здравствуйте! У меня рассинхронизация аудио и видео при просмотре на WD TV HD такого рода. У смонтированного в Sony Vegas 10 видео, выведенного (просчитанного) с расширением m2ts, при просмотре на телике во второй половине фильма начинает тормозить видео, а аудио плавно разгоняться. За 1-2 минуты до окончания видеоролика, видео "догоняет" звук и концовка синхронизируется. Это происходит если фильмы по продолжительности в среднем более 15-20 минут. Если менее, то все нормально.
      Причем, когда смотришь на компьютере, никаких проблем не возникает.
      И еще, на медиаплеере после перемотки видео в режиме просмотра, при включении кнопки "play", звук запускается не сразу, его появления надо ждать несколько секунд.
      Что за беда и как с ней бороться, подскажите пожалуйста. Заранее спасибо!
Написано:  25 Май 2014 09:25
mediainfo бы нужен.. и параметры кодирования
__________________
Где купить WD TV: Live Streaming
Написано:  26 Май 2014 18:38
Здравствуйте! Вот медиаинфо видеоклипа, изготовленного в Sony Vegas 10:


Общее
Идентификатор                            : 0 (0x0)
Полное имя                               : C:\Users\User\Videos\Sony Vegas Pro 10.0 - проекты\2011_видеорадости\2011_видеорадости-2 на 256 kbps.m2ts
Формат                                   : BDAV
Формат/Информация                        : Blu-ray Video
Размер файла                             : 3,48 Гбайт
Продолжительность                        : 31 м.
Режим общего битрейта                    : Переменный
Общий поток                              : 15,6 Мбит/сек
Максимальный общий битрейт               : 18,0 Мбит/сек

Видео
Идентификатор                            : 4113 (0x1011)
Идентификатор меню                       : 1 (0x1)
Формат                                   : AVC
Формат/Информация                        : Advanced Video Codec
Профиль формата                          : High@L4.0
Параметр CABAC формата                   : Да
Параметр ReFrames формата                : 2 кадра
Идентификатор кодека                     : 27
Продолжительность                        : 29 м.
Вид битрейта                             : Переменный
Битрейт                                  : 14,8 Мбит/сек
Максимальный битрейт                     : 22,0 Мбит/сек
Ширина                                   : 1920 пикселей
Высота                                   : 1080 пикселей
Соотношение сторон                       : 16:9
Частота кадров                           : 25,000 кадров/сек
Цветовое пространство                    : YUV
Субдискретизация насыщенности            : 4:2:0
Битовая глубина                          : 8 бит
Тип развёртки                            : Чересстрочная
Порядок развёртки                        : Верхнее поле первое
Бит/(Пиксели*Кадры)                      : 0.285
Размер потока                            : 3,06 Гбайт (88%)

Аудио
Идентификатор                            : 4352 (0x1100)
Идентификатор меню                       : 1 (0x1)
Формат                                   : AC-3
Формат/Информация                        : Audio Coding 3
Расширение режима                        : CM (complete main)
Параметр Endianness формата              : Big
Идентификатор кодека                     : 129
Продолжительность                        : 31 м.
Вид битрейта                             : Постоянный
Битрейт                                  : 256 Кбит/сек
Каналы                                   : 2 канала
Расположение каналов                     : Front: L R
Частота                                  : 48,0 КГц
Битовая глубина                          : 16 бит
Метод сжатия                             : С потерями
Задержка видео                           : -40 мс.
Размер потока                            : 58,3 Мбайт (2%)



А далее медиаинфо одного из видеофайлов, с которых верстался вышеуказанный фильм. Съемка ведётся с камеры Sony HDR CX 100E:

бщее
Идентификатор                            : 0 (0x0)
Полное имя                               : C:\Users\User\Videos\CAMERA\20111125 конц в муз школе\27.11.2011\20111125190321.m2ts
Формат                                   : BDAV
Формат/Информация                        : Blu-ray Video
Размер файла                             : 208 Мбайт
Продолжительность                        : 1 м. 41 с.
Режим общего битрейта                    : Переменный
Общий поток                              : 17,1 Мбит/сек
Максимальный общий битрейт               : 18,0 Мбит/сек

Видео
Идентификатор                            : 4113 (0x1011)
Идентификатор меню                       : 1 (0x1)
Формат                                   : AVC
Формат/Информация                        : Advanced Video Codec
Профиль формата                          : High@L4.0
Параметр CABAC формата                   : Да
Параметр ReFrames формата                : 2 кадра
Параметр GOP формата                     : M=2, N=13
Идентификатор кодека                     : 27
Продолжительность                        : 1 м. 41 с.
Вид битрейта                             : Переменный
Битрейт                                  : 16,2 Мбит/сек
Максимальный битрейт                     : 16,0 Мбит/сек
Ширина                                   : 1920 пикселей
Высота                                   : 1080 пикселей
Соотношение сторон                       : 16:9
Частота кадров                           : 25,000 кадров/сек
Цветовое пространство                    : YUV
Субдискретизация насыщенности            : 4:2:0
Битовая глубина                          : 8 бит
Тип развёртки                            : Чересстрочная
Порядок развёртки                        : Верхнее поле первое
Бит/(Пиксели*Кадры)                      : 0.312
Размер потока                            : 196 Мбайт (94%)

Аудио
Идентификатор                            : 4352 (0x1100)
Идентификатор меню                       : 1 (0x1)
Формат                                   : AC-3
Формат/Информация                        : Audio Coding 3
Расширение режима                        : CM (complete main)
Параметр Endianness формата              : Big
Идентификатор кодека                     : 129
Продолжительность                        : 1 м. 41 с.
Вид битрейта                             : Постоянный
Битрейт                                  : 256 Кбит/сек
Каналы                                   : 2 канала
Расположение каналов                     : Front: L R
Частота                                  : 48,0 КГц
Битовая глубина                          : 16 бит
Метод сжатия                             : С потерями
Задержка видео                           : -80 мс.
Размер потока                            : 3,11 Мбайт (1%)

Текст
Идентификатор                            : 4608 (0x1200)
Идентификатор меню                       : 1 (0x1)
Формат                                   : PGS
Идентификатор кодека                     : 144
Продолжительность                        : 1 м. 41 с.
Задержка видео                           : -80 мс.

Единственно, я не совсем понимаю, что подразумевается под "параметрами кодирования". Извините, чайник. Заранее спасибо!
Написано:  26 Май 2014 20:56
Под "параметрами кодирования" подразумевалось,какие настройки ставите для перекодированного видео.
__________________
Sharp LC-32X20RU + WDTV Gen2 + WDTV Live (если понравилось 41001352107159 яндекс)
Написано:  27 Май 2014 14:49
В свойствах проекта Sony Vegas:

Видео:
Шаблон: HD 1080-50i (1920x1080; 25.000 к\с)
Width: 1920
высота: 1080
Порядок полей: верхнее поле первое
Pixel aspect ratio: 1.0000 (квадрат)
Output rotation: 0(оригинальный)
Частота: 25.000 (pal)
Stereoscopic 3D mode: выкл
Pixel format: 8-bit
Full-resolution rendering quality: отличное
Motion blur type: По гауссу
Deinterlace method: Смешивать поля

Звук:
Стерео
Number of stereo busses: 0
Sample rate (Hz): 48000
Битность: 16
Resample and stretch quality: отличное

Шкала:
Ruler time format: SMPTE EBU (25 k\c, видео)
Ruler start time: 00:00:00:00
Такты и удары:
Beats per minute (tempo): 120,000
Beats per measure: 4
Note that gets one beat: четверть



"Просчитать как":

Save as type: Sony AVC
Template: AVCHD 1920x1080-50i
Format: Audio:128 Kbps; 48000Hz; 24 Bit; Stereo; AC-3
Video: 25 fps; 1920x1080 Upper field first; YUV; 16 Mbps
Pixel Aspect Ratio: 1,000

Видео:
Video format: AVCHD
Frame size: High definition (1920x1080)
Profile: high
Entropy coding: CABAC
Frame rate: 25,000 (PAL)
Pixel aspect ratio: 1,0000
Bit rate (bps): 16000000
Encode mode: Automatic

Аудио:
Audio format: Dolby Digital AC-3 Studio
Sample rate (Hz): 48000
Bit rate (bps): 128000
Audio coding mode: 2/0 (L,R)

System:
Format: MPEG-2 transport stream (.m2ts)

Project:
Video rendering quality: (Use Project Settings)
Stereoscopic 3D mode: (Use Project Settings)


Если это не то, что Вы просите, объясните пожалуйста на пальцах. Спасибо.
Написано:  27 Май 2014 21:56
А какая у вас прошивка стоит на плеере ?
__________________
Sharp LC-32X20RU + WDTV Gen2 + WDTV Live (если понравилось 41001352107159 яндекс)
Написано:  27 Май 2014 22:12
а если исходный m2ts проигрывать (тот что с камеры), тоже рассинхрон есть?
__________________
Где купить WD TV: Live Streaming
Написано:  27 Май 2014 22:15   Отредактировано: touch
Цитата:
Deinterlace method: Смешивать поля
тут не совсем понятно с одной стороны, деинтерлейс делается.. а с другой - в итоге всё равно чересстрочная развёртка выходит.. как так ожидалось 1080p
__________________
Где купить WD TV: Live Streaming
Написано:  28 Май 2014 10:31
ПО WD-плеера: 1.01.77
Специально записал на видеокамере фрагмент на 30 минут. При его воспроизведении с камеры на прямую через телевизор все нормально. Подключил камеру через WD-плеер к телику, тоже все в норме. При перемотках в режиме воспроизведения, также никаких задержек. Характерно, что при воспроизведении 30-минутного фрагмента через WD-плеер, устройство видит это видео, как 2 файла, примерно, по 2 гиг (16 минут). Такая же разбивка идет при копировании на компьютер. В настройках видеокамеры изменить размеры разбиваемых клипов не удалось, там,похоже, жестко установлен 16 минутный параметр. Интересно было бы "склеить" эти два фрагмента, но, если я правильно понимаю, их "соитие" во всех видеоредакторах будет сопровождаться перекодировкой. Или нет?
Что убивает, это затраченное на все это время. А хочется выгнать фильмы в наилучшем качестве.
Спасибо.
Написано:  28 Май 2014 11:02
ays2001 Есть програмка tsMuxeR,в ней должны склеиться без перекодирования, попробуйте.
__________________
Sharp LC-32X20RU + WDTV Gen2 + WDTV Live (если понравилось 41001352107159 яндекс)
Написано:  28 Май 2014 15:39
Цитата:
В настройках видеокамеры изменить размеры разбиваемых клипов не удалось
а модель камеры? пишется на что там, на встроенную флешку или на sd карту?
__________________
Где купить WD TV: Live Streaming
Написано:  28 Май 2014 15:47
Склеил файлы в Tsmuxer. При просмотре такого 30-минутного ролика через WD-плеер проблем нет. То есть претензии к качеству снимаемого данной видеокамерой Sony HDR cx100 материала отпадают. Может подскажете, что теперь делать? В чем же кроется проблема рассинхрона? Спасибо.
Написано:  28 Май 2014 15:50
Всё видео на камере Sony HDR cx100 пишется мною на встроенную флэш-память

Поделитесь со своими друзьями в соцсетях:

WDTV Forum / Форум про WD TV Gen2 / Опыт эксплуатации / торможение видео m2ts в созданных в Sony Vegas 10 клипах