Неофициальный клуб пользователей HD видео плеера WD TV


»Юзер: »Пароль:   Запомнить? 
WDTV Forum / Форум про WD TV Gen2 / Опыт эксплуатации / помогите не идет фильм
Написано:  02 Янв 2014 22:08   Отредактировано: olex66
скачял много в 3д половина не идет
думаю проблемма в соотношении сторон
1920-1600 приставка не понимает
если так какой прогой это поменять желательно бесплатной
если я гоню ну хоть обьясните что как очень прошу самому трудно понять
извените забыл
Общее
Уникальный идентификатор         : 234885904592850705510214809780299878944 (0xB0B5613521E243599452EB6A0AE5D220)
Полное имя                       : C:\Downloads\Призрачный патруль (2013 г.) OverUnder.mkv
Формат                           : Matroska
Размер файла                     : 9,60 Гбайт
Продолжительность                : 1 ч. 35 м.
Общий поток                      : 14,3 Мбит/сек
Дата кодирования                 : UTC 2013-10-22 05:27:04
Программа кодирования            : mkvmerge v6.3.0 ('You can't stop me!') built on Jun 28 2013 20:09:41
Библиотека кодирования           : libebml v1.3.0 + libmatroska v1.4.0

Видео
Идентификатор                    : 1
Формат                           : AVC
Формат/Информация                : Advanced Video Codec
Профиль формата                  : High@L5.0
Параметр CABAC формата           : Да
Параметр ReFrames формата        : 4 кадры
Идентификатор кодека             : V_MPEG4/ISO/AVC
Продолжительность                : 1 ч. 35 м.
Битрейт                          : 13,7 Мбит/сек
Ширина                           : 1920 пикс.
Высота                           : 1600 пикс.
Соотношение сторон               : 1,200
Частота кадров                   : 23,976 кадр/сек
Цветовое пространство            : YUV
Подвыборка цветности             : 4:2:0
Битовая глубина                  : 8 бит
Тип развёртки                    : Прогрессивная
Бит/(Пиксели*Кадры)              : 0.185
Размер потока                    : 9,15 Гбайт (95%)
Библиотека кодирования           : x264 core 138 r2356 a1d3d17
Настройки программы              : cabac=1 / ref=4 / deblock=1:-3:-3 / analyse=0x3:0x113 / me=umh / subme=9 / psy=1 / psy_rd=1.00:0.15 / mixed_ref=1 / me_range=24 / chroma_me=1 / trellis=2 / 8x8dct=1 / cqm=0 / deadzone=21,11 / fast_pskip=1 / chroma_qp_offset=-3 / threads=9 / lookahead_threads=1 / sliced_threads=0 / nr=0 / decimate=1 / interlaced=0 / bluray_compat=0 / constrained_intra=0 / bframes=8 / b_pyramid=2 / b_adapt=2 / b_bias=0 / direct=3 / weightb=1 / open_gop=0 / weightp=2 / keyint=250 / keyint_min=23 / scenecut=40 / intra_refresh=0 / rc_lookahead=60 / rc=crf / mbtree=1 / crf=18.0 / qcomp=0.60 / qpmin=10 / qpmax=69 / qpstep=4 / vbv_maxrate=40000 / vbv_bufsize=40000 / crf_max=0.0 / nal_hrd=none / ip_ratio=1.40 / aq=1:1.00
Язык                             : English

Аудио
Идентификатор                    : 2
Формат                           : AC-3
Формат/Информация                : Audio Coding 3
Расширение режима                : CM (complete main)
Идентификатор кодека             : A_AC3
Продолжительность                : 1 ч. 35 м.
Вид битрейта                     : Постоянный
Битрейт                          : 384 Кбит/сек
Канал(ы)                         : 6 канала(ов)
Расположение каналов             : Front: L C R, Side: L R, LFE
Частота                          : 48,0 КГц
Битовая глубина                  : 16 бит
Метод сжатия                     : С потерями
Размер потока                    : 263 Мбайт (3%)
Язык                             : Russian

Поделитесь со своими друзьями в соцсетях:

WDTV Forum / Форум про WD TV Gen2 / Опыт эксплуатации / помогите не идет фильм