Неофициальный клуб пользователей HD видео плеера WD TV


»Юзер: »Пароль:   Запомнить? 
WDTV Forum / Форум про HD фильмы / Эти фильмы не идут / Видео из фотокамеры Fujifilm EXR 600 у кого идет на WDTV Live
Написано:  20 Ноя 2013 19:23   Отредактировано: antd2000
Подскажите, у кого идет видео с фотоаппарата Fujifilm EXR 600 на WDTV Live и на какой прошивке?
(пример видео доступен ниже)

У меня одна из довольно старых прошивок, обновляться буду только из за видео с камеры. Хочу узнать на новых прошивках оно идет или нет?

Если кто попробует, спасибо!
Вот пример видео:

http://rusfolder.com/38864725
или
http://rapidshare.com/share/497802782A0160E94838BC91C3892F27
(нажать 'to downlaod', затем навести на файл и справа появиться стрелка')

У меня видео идет, а звука нормального нет, только какой то шум прерывающийся периодически слышен (шипение) раз в секунду.

У вас как (и какая прошивка)?
Написано:  20 Ноя 2013 19:58   Отредактировано: touch
я так думаю, это из-за кодека sowt, который есть непонять что

Цитата:
General
Complete name: DSCF7406.MOV
Format                                   : MPEG-4
Format profile                           : QuickTime
Codec ID                                 : qt 
File size                                : 10.4 MiB
Duration                                 : 7s 7ms
Overall bit rate                         : 12.5 Mbps
Movie name/More                          : FUJIFILM DIGITAL CAMERA FinePix F600EXR
Encoded date                             : UTC 2013-06-06 13:41:33
Tagged date                              : UTC 2013-06-06 13:41:33
Origin                                   : Digital Camera

Video
ID                                       : 1
Format                                   : AVC
Format/Info                              : Advanced Video Codec
Format profile                           : High@L3.1
Format settings, CABAC                   : No
Format settings, ReFrames                : 1 frame
Format settings, GOP                     : M=1, N=15
Codec ID                                 : avc1
Codec ID/Info                            : Advanced Video Coding
Duration                                 : 7s 7ms
Bit rate mode                            : Variable
Bit rate                                 : 9 813 Kbps
Width                                    : 1 280 pixels
Height                                   : 720 pixels
Display aspect ratio                     : 16:9
Frame rate mode                          : Constant
Frame rate                               : 29.970 fps
Color space                              : YUV
Chroma subsampling                       : 4:2:0
Bit depth                                : 8 bits
Scan type                                : Progressive
Bits/(Pixel*Frame)                       : 0.355
Stream size                              : 8.20 MiB (78%)
Language                                 : English
Encoded date                             : UTC 2013-06-06 13:41:33
Tagged date                              : UTC 2013-06-06 13:41:33

Audio
ID                                       : 2
Format                                   : PCM
Format settings, Endianness              : Little
Format settings, Sign                    : Signed
Codec ID                                 : sowt
Duration                                 : 7s 7ms
Bit rate mode                            : Constant
Bit rate                                 : 768 Kbps
Channel count                            : 2 channels
Channel positions                        : Front: L R
Sampling rate                            : 48.0 KHz
Bit depth                                : 16 bits
Stream size                              : 657 KiB (6%)
Language                                 : English
Encoded date                             : UTC 2013-06-06 13:41:33
Tagged date                              : UTC 2013-06-06 13:41:33

__________________
Где купить WD TV: Live Streaming
Написано:  20 Ноя 2013 20:04   Отредактировано: admin
Цитата:
Apple QuickTime Identifiers

Audio information in QuickTime files is stored along with an stsd atom that contains a FOURCC to indicate the format type. Apple QuickTime accomodates a number of different PCM formats:
'raw ' (need space character, ASCII 0x20, to round out FOURCC) denotes unsigned, linear PCM. 16-bit data is stored in little endian format.
'twos' denotes signed (i.e. twos-complement) linear PCM. 16-bit data is stored in big endian format.
'sowt' ('twos' spelled backwards) also denotes signed linear PCM. However, 16-bit data is stored in little endian format.
'in24' denotes 24-bit, big endian, linear PCM.
'in32' denotes 32-bit, big endian, linear PCM.
'fl32' denotes 32-bit floating point PCM. (Presumably IEEE 32-bit; byte order?)
'fl64' denotes 64-bit floating point PCM. (Presumably IEEE 64-bit; byte order?)
'alaw' denotes A-law logarithmic PCM.
'ulaw' denotes mu-law logarithmic PCM.

__________________
Где купить WD TV: Live Streaming
Написано:  20 Ноя 2013 20:09   Отредактировано: touch
в-общем, попробовал на wdtv live streaming, с последней прошивкой
как ни странно, всё отлично играется - картинка есть, звук есть
с обычным live помочь не смогу, сорри..
__________________
Где купить WD TV: Live Streaming
Написано:  20 Ноя 2013 20:25
Спасибо!

Кстати, судя по 'Release Notes', со звуком в mov что-то исправляли в 1.06.15 и 1.06.43. То есть в двух заключительных прошивках. Хотя может оно и на более ранних есть(если конечно есть вообще)?
Может еще кто попробует?
Написано:  20 Ноя 2013 20:32
Тоже косяк со звуком, проверял на прошивке 1.02.21 .
__________________
Sharp LC-32X20RU + WDTV Gen2 + WDTV Live (если понравилось 41001352107159 яндекс)
Написано:  20 Ноя 2013 20:49   Отредактировано: antd2000
Кстати, если ведь если проблема в аудио-кодеке.
Насколько я понял ведь можно конвертнуть только звук и причем без потери качества вроде в моем случае (только байты переставлены).

Вот чем это сделать, не трогая видео?
(До этого юзал ffmpeg с фронтэндом WinFF, но там формат звука не задается, а только битрейт, частота..)
И перекодировал вместе с видео.
Звук получался такой и WD уже играл его.
Цитата:
Аудио
Идентификатор                    : 2
Формат                           : AAC
Формат/Информация                : Advanced Audio Codec
Версия формата                   : Version 4
Профайл формата                  : LC
Параметры SBR формата            : Нет
Идентификатор кодека             : 40
Продолжительность                : 9 с. 45 мс.
Вид битрейта                     : Переменный
Битрейт                          : 165 Кбит/сек
Максимальный битрейт             : 192 Кбит/сек
Канал(ы)                         : 2 канала(ов)
Расположение каналов             : L R
Частота                          : 48,0 КГц
Размер потока                    : 182 Килобайт (2%)
Язык                             : English

Так вот, как бы теперь видео вообще не трогать, а аудио сконвертить без потери качества?

Ну или строчку для ffmpeg киньте, плиз, если кто знает
Или может, VLC...
Написано:  20 Ноя 2013 20:56
Есть у нас програмка в факе для перекодирования дтс http://wdhd.ru/faq.php?q_id=7 , только незнаю увидит мов с таким звуком.
__________________
Sharp LC-32X20RU + WDTV Gen2 + WDTV Live (если понравилось 41001352107159 яндекс)
Написано:  20 Ноя 2013 21:20   Отредактировано: touch
Цитата:
Так вот, как бы теперь видео вообще не трогать, а аудио сконвертить без потери качества?
вот тут была тема на этот счёт:
как перекодировать аудио PCM для WD
__________________
Где купить WD TV: Live Streaming
Написано:  20 Ноя 2013 21:21
Цитата:
... только незнаю увидит мов с таким звуком
вряд ли, он я помню, только с матрёшкой работал!
__________________
Где купить WD TV: Live Streaming
Написано:  11 Дек 2013 17:20
Спасибо всем ответившим.

Сработало 2 способа.

1. Прога Mp4Cam2AVI с настройками звука и видео "uncompressed".

(Она звук переписывает в другом PCM формате, в правильном PCM-Little-Signed)

Правда выдает предупреждение, что файл не очень стандартный получается. Мол, MP4 с PCM как-то не очень совместимо. Но WDTVLive играет
Да, исходные mov полюбому нужно оставить, о этом прога тоже говорит.
Массово конвертировать умеет.

2. FFMPEG с пережатием звука в AAC:

ffmpeg -i file.mov -vcodec copy -acodec aac -strict experimental -ab 128k file.mp4

Его удобно юзать через GUI фронтэнд WinFF, там можно задавать эту строчку для массового конвертирования файлов.

Первый способ быстрее.

Поделитесь со своими друзьями в соцсетях:

WDTV Forum / Форум про HD фильмы / Эти фильмы не идут / Видео из фотокамеры Fujifilm EXR 600 у кого идет на WDTV Live