Неофициальный клуб пользователей HD видео плеера WD TV


»Юзер: »Пароль:   Запомнить? 
WDTV Forum / Форум про HD фильмы / Эти фильмы не идут / WD TV Play не читает файлы с расширением mov
Написано:  08 Ноя 2013 11:43
Цитата:
Gromootvod, в-общем, про play не скажу, но streaming без проблем читает этот mov!
попробуй скачай вот такой вариант, я тебе перекодировал в mp4/h.264
если и он не будет читаться, то вообще непонятно 
http://www.ex.ua/728569122390

Перекодированный файл читает без проблем и качество картинки нормальное. Чем конвертировали?
Написано:  08 Ноя 2013 12:07   Отредактировано: touch
я делал в Bigasoft Total Video Converter, но я боюсь что он только под винду есть.. на самом деле, дело не столько в конвертере конкретном, сколько в настройках - нужен стандартный hd профиль для h.264 кодека (High@L4.1) и контейнер беспроблемный (например .mp4 тот же)

[ Скрытый текст ]

__________________
Где купить WD TV: Live Streaming
Написано:  12 Ноя 2013 12:42
Ребята, а вот тоже файл с расширением mov, но он читается на ура. А в чем отличие????
Общее
Полное имя                               : G:\День рождения Лены 1 мая 2010 года.mov
Формат                                   : MPEG-4
Профиль формата                          : QuickTime
Идентификатор кодека                     : qt 
Размер файла                             : 580 Мбайт
Продолжительность                        : 7 м. 51 с.
Общий поток                              : 10,3 Мбит/сек
Дата кодирования                         : UTC 2010-05-06 09:09:42
Дата пометки                             : UTC 2010-05-06 09:10:20
Библиотека кодирования                   : Apple QuickTime

Видео
Идентификатор                            : 1
Формат                                   : AVC
Формат/Информация                        : Advanced Video Codec
Профиль формата                          : Main@L3.1
Параметр CABAC формата                   : Нет
Параметр ReFrames формата                : 2 кадра
Параметр GOP формата                     : M=2, N=90
Идентификатор кодека                     : avc1
Идентификатор кодека/Информация          : Advanced Video Coding
Продолжительность                        : 7 м. 51 с.
Продолжительность оригинала              : 7 м. 51 с.
Битрейт                                  : 10,2 Мбит/сек
Ширина                                   : 1280 пикселей
Высота                                   : 720 пикселей
Соотношение сторон                       : 16:9
Режим частоты кадров                     : Постоянный
Частота кадров                           : 25,000 кадров/сек
Цветовое пространство                    : YUV
Субдискретизация насыщенности            : 4:2:0
Битовая глубина                          : 8 бит
Тип развёртки                            : Прогрессивная
Бит/(Пиксели*Кадры)                      : 0.442
Размер потока                            : 572 Мбайт (99%)
Размер потока оригинала                  : 572 Мбайт (99%)
Заголовок                                : Ћбработчик видео Apple / Ћбработчик псевдонимов Apple
Язык                                     : English
Дата кодирования                         : UTC 2010-05-06 08:50:48
Дата пометки                             : UTC 2010-05-06 09:10:20
Основные цвета                           : BT.709
Характеристики трансфера                 : BT.709
Коэффициенты матрицы                     : BT.709

Аудио
Идентификатор                            : 2
Формат                                   : AAC
Формат/Информация                        : Advanced Audio Codec
Профиль формата                          : LC
Идентификатор кодека                     : 40
Продолжительность                        : 7 м. 51 с.
Продолжительность оригинала              : 7 м. 51 с.
Вид битрейта                             : Постоянный
Битрейт                                  : 128 Кбит/сек
Каналы                                   : 2 канала
Расположение каналов                     : Front: L R
Частота                                  : 44,1 КГц
Метод сжатия                             : С потерями
Размер потока                            : 7,32 Мбайт (1%)
Размер потока оригинала                  : 7,32 Мбайт (1%)
Заголовок                                : Ћбработчик звука Apple / Ћбработчик псевдонимов Apple
Язык                                     : English
Дата кодирования                         : UTC 2010-05-06 08:50:55
Дата пометки                             : UTC 2010-05-06 09:10:20
Написано:  12 Ноя 2013 13:01   Отредактировано: Gromootvod
Скачал рекомендуемый вами конвертор. Выбираю профииль HD H.264/MPEG-4 AVC video, но программа сообщает об ошибке и не конвертирует. Я что то не так делаю?

Упс, переименовал файл латиницей и конвертация пошла
Написано:  12 Ноя 2013 13:44
Если с самым первым файлом, то во второй части - Видео
Идентификатор                            : 1
Формат                                   : AVC  .
__________________
Sharp LC-32X20RU + WDTV Gen2 + WDTV Live (если понравилось 41001352107159 яндекс)
Написано:  12 Ноя 2013 15:08
Уважаемый touch, можете выложить скрин экрана с перечнем настроек, которые вы выставили перед конвертацией моего ролика.
Написано:  12 Ноя 2013 20:21   Отредактировано: touch
Цитата:
можете выложить скрин экрана с перечнем настроек

я бы с радостью, но к сожалению, сегодня винду переустановил.. до конвертеров ещё руки не дошли.. дайте пару дней! а вообще настройки примерно такие там делал:
контейнер .mp4
кодек h.264
битрейт 20 мегабит/сек
разрешение 1920x1080
звук ac3 (192 кбит вроде, а может 224)

ps а что, нашлась версия для macos? или из-под parallels запускаете?
__________________
Где купить WD TV: Live Streaming
Написано:  13 Ноя 2013 08:10
Я установил на рабочий комп, а там винда. Пробовал конвертировать, но фигня какая то получилась
Написано:  13 Ноя 2013 13:53
Gromootvod, вот настройки что я ставил:

шаг 1. hd профиль, контейнер и кодек



шаг 2. меняем настройки во вкладке "дополнительно".. битрейт побольше, звук ac3 вместо aac


__________________
Где купить WD TV: Live Streaming
Написано:  13 Ноя 2013 13:54   Отредактировано: touch
да, кстати.. нашёлся bigasoft total video converter для macos'а
может пригодится, если всё получится!

http://rutracker.org/forum/viewtopic.php?t=3984481
__________________
Где купить WD TV: Live Streaming
Написано:  15 Ноя 2013 09:44
Спасибо!

Поделитесь со своими друзьями в соцсетях:

WDTV Forum / Форум про HD фильмы / Эти фильмы не идут / WD TV Play не читает файлы с расширением mov