Неофициальный клуб пользователей HD видео плеера WD TV


»Юзер: »Пароль:   Запомнить? 
WDTV Forum / Форум про HD фильмы / Эти фильмы не идут / WD TV Play не читает файлы с расширением mov
Написано:  22 Окт 2013 10:42
Общее
Полное имя                               : G:\Египет, экскурсия в Луксор, ноябрь 2010.mov
Формат                                   : MPEG-4
Профиль формата                          : QuickTime
Идентификатор кодека                     : qt 
Размер файла                             : 3,07 Гбайт
Продолжительность                        : 9 м. 54 с.
Режим общего битрейта                    : Переменный
Общий поток                              : 44,3 Мбит/сек
Дата кодирования                         : UTC 2013-09-17 16:19:08
Дата пометки                             : UTC 2013-09-17 17:01:15
Библиотека кодирования                   : Apple QuickTime

Видео
Идентификатор                            : 1
Формат                                   : AIC
Идентификатор кодека                     : icod
Идентификатор кодека/Информация          : Apple Intermediate Codec
Продолжительность                        : 9 м. 54 с.
Продолжительность оригинала              : 9 м. 54 с.
Вид битрейта                             : Переменный
Битрейт                                  : 44,3 Мбит/сек
Ширина                                   : 1416 пикселей
Ширина оригинала                         : 1440 пикселей
Высота                                   : 1062 пикселя
Высота оригинала                         : 1080 пикселей
Соотношение сторон                       : 16:9
Режим частоты кадров                     : Постоянный
Частота кадров                           : 25,000 кадров/сек
Цветовое пространство                    : YUV
Субдискретизация насыщенности            : 4:2:0
Битовая глубина                          : 8 бит
Тип развёртки                            : Прогрессивная
Бит/(Пиксели*Кадры)                      : 1.177
Размер потока                            : 3,06 Гбайт (100%)
Размер потока оригинала                  : 3,07 Гбайт (100%)
Заголовок                                : Ћбработчик видео Apple / Ћбработчик псевдонимов Apple
Язык                                     : English
Дата кодирования                         : UTC 2013-09-17 16:19:09
Дата пометки                             : UTC 2013-09-17 17:01:15
Основные цвета                           : BT.709
Характеристики трансфера                 : BT.709
Коэффициенты матрицы                     : BT.709

Аудио
Идентификатор                            : 2
Формат                                   : AAC
Формат/Информация                        : Advanced Audio Codec
Профиль формата                          : HE-AACv2 / HE-AAC / LC
Идентификатор кодека                     : 40
Продолжительность                        : 9 м. 54 с.
Продолжительность оригинала              : 9 м. 55 с.
Вид битрейта                             : Постоянный
Битрейт                                  : 56,0 Кбит/сек
Каналы                                   : 2 канала / 2 канала / 2 канала
Расположение каналов                     : Front: L R / Front: L R / Front: L R
Частота                                  : 32,0 КГц / 32,0 КГц / 16,0 КГц
Метод сжатия                             : С потерями
Размер потока                            : 3,98 Мбайт (0%)
Размер потока оригинала                  : 3,98 Мбайт (0%)
Заголовок                                : Ћбработчик звука Apple / Ћбработчик псевдонимов Apple
Язык                                     : English
Дата кодирования                         : UTC 2013-09-17 16:19:13
Дата пометки                             : UTC 2013-09-17 17:01:15

Перегнать в avi с помощью mp4cam2avi тоже не выходит, пишет unsuported videoformat
Посоветуйте что делать? Хочется смотреть ролики,которые я монтирую на маке.
Написано:  22 Окт 2013 11:02   Отредактировано: alukard
Перегнать в другой проге, этой тоже не нравиться кодек(да и контейнер другой для этой проги нужен) с которым сделано видео.
__________________
Sharp LC-32X20RU + WDTV Gen2 + WDTV Live (если понравилось 41001352107159 яндекс)
Написано:  22 Окт 2013 11:30
Посоветуйте прогу.
Написано:  22 Окт 2013 11:47   Отредактировано: alukard
Попробуйте такой http://www.movavi.ru/VideoConverter/ ,а он платный, ну тогда из этих http://www.macdigger.ru/macall/macsoft/6-besplatnyx-video-konverterov-pod-mac-os-x.html .
__________________
Sharp LC-32X20RU + WDTV Gen2 + WDTV Live (если понравилось 41001352107159 яндекс)
Написано:  23 Окт 2013 09:50
Переконвертировал в avi, mpg, mp4, все равно плеер изображение не кажет.
Общее
Полное имя                               : G:\Египет, экскурсия в Луксор, ноябрь 2010.avi
Формат                                   : AVI
Формат/Информация                        : Audio Video Interleave
Размер файла                             : 22,8 Мбайт
Продолжительность                        : 9 м. 54 с.
Общий поток                              : 322 Кбит/сек

Видео
Идентификатор                            : 0
Формат                                   : AVC
Формат/Информация                        : Advanced Video Codec
Профиль формата                          : Baseline@L1.3
Параметр CABAC формата                   : Нет
Параметр ReFrames формата                : 1 кадр
Параметр GOP формата                     : M=1, N=25
Идентификатор кодека                     : X264
Идентификатор кодека/Информация          : XiWave GNU GPL x264 MPEG-4
Продолжительность                        : 9 м. 54 с.
Битрейт                                  : 53,3 Кбит/сек
Ширина                                   : 1920 пикселей
Высота                                   : 1080 пикселей
Соотношение сторон                       : 16:9
Частота кадров                           : 25,000 кадров/сек
Цветовое пространство                    : YUV
Субдискретизация насыщенности            : 4:2:0
Битовая глубина                          : 8 бит
Тип развёртки                            : Прогрессивная
Бит/(Пиксели*Кадры)                      : 0.001
Размер потока                            : 3,78 Мбайт (17%)

Аудио
Идентификатор                            : 1
Формат                                   : MPEG Audio
Версия формата                           : Version 1
Профиль формата                          : Layer 3
Идентификатор кодека                     : 55
Идентификатор кодека/Подсказка           : MP3
Продолжительность                        : 9 м. 54 с.
Вид битрейта                             : Постоянный
Битрейт                                  : 256 Кбит/сек
Каналы                                   : 2 канала
Частота                                  : 44,1 КГц
Метод сжатия                             : С потерями
Размер потока                            : 18,2 Мбайт (80%)
Выравнивание                             : Разделение по промежуткам
Продолжительность промежутка             : 26  мс. (0,65 видеокадр)
Время предзагрузки промежутка            : 49  мс.
Библиотека кодирования                   : LAME3.98.2

Общее
Полное имя                               : G:\Египет, экскурсия в Луксор, ноябрь 2010.mp4
Формат                                   : MPEG-4
Профиль формата                          : Base Media / Version 2
Идентификатор кодека                     : mp42
Размер файла                             : 40,6 Мбайт
Продолжительность                        : 9 м. 54 с.
Общий поток                              : 572 Кбит/сек
Дата кодирования                         : UTC 2013-10-22 11:16:35
Дата пометки                             : UTC 2013-10-22 11:39:09

Видео
Идентификатор                            : 1
Формат                                   : MPEG-4 Visual
Профиль формата                          : Advanced Simple@L4
Параметр BVOP формата                    : Нет
Параметр QPel формата                    : Нет
Параметр GMC формата                     : Без точки перехода
Параметр матрицы формата                 : Default (H.263)
Идентификатор кодека                     : 20
Продолжительность                        : 9 м. 54 с.
Вид битрейта                             : Постоянный
Битрейт                                  : 378 Кбит/сек
Ширина                                   : 1920 пикселей
Высота                                   : 1080 пикселей
Соотношение сторон                       : 16:9
Режим частоты кадров                     : Постоянный
Частота кадров                           : 25,000 кадров/сек
Цветовое пространство                    : YUV
Субдискретизация насыщенности            : 4:2:0
Битовая глубина                          : 8 бит
Тип развёртки                            : Прогрессивная
Метод сжатия                             : С потерями
Бит/(Пиксели*Кадры)                      : 0.007
Размер потока                            : 26,8 Мбайт (66%)
Язык                                     : English
Дата кодирования                         : UTC 2013-10-22 11:16:35
Дата пометки                             : UTC 2013-10-22 11:39:09

Аудио
Идентификатор                            : 2
Формат                                   : AAC
Формат/Информация                        : Advanced Audio Codec
Профиль формата                          : LC
Идентификатор кодека                     : 40
Продолжительность                        : 9 м. 54 с.
Продолжительность оригинала              : 9 м. 54 с.
Вид битрейта                             : Постоянный
Номинальный битрейт                      : 192 Кбит/сек
Каналы                                   : 2 канала
Расположение каналов                     : Front: L R
Частота                                  : 44,1 КГц
Метод сжатия                             : С потерями
Размер потока оригинала                  : 13,6 Мбайт (34%)
Язык                                     : English
Дата кодирования                         : UTC 2013-10-22 11:16:35
Дата пометки                             : UTC 2013-10-22 11:39:09

Общее
Полное имя                               : G:\Египет, экскурсия в Луксор, ноябрь 2010.mpg
Формат                                   : MPEG-PS
Размер файла                             : 1,17 Гбайт
Продолжительность                        : 9 м. 54 с.
Общий поток                              : 16,9 Мбит/сек

Видео
Идентификатор                            : 224 (0xE0)
Формат                                   : MPEG Video
Версия формата                           : Version 2
Профиль формата                          : Main@Main
Параметр BVOP формата                    : Да
Параметр матрицы формата                 : По умолчанию
Параметр GOP формата                     : M=3, N=15
Продолжительность                        : 9 м. 54 с.
Битрейт                                  : 16,3 Мбит/сек
Максимальный битрейт                     : 16,1 Мбит/сек
Ширина                                   : 1920 пикселей
Высота                                   : 1080 пикселей
Соотношение сторон                       : 16:9
Частота кадров                           : 25,000 кадров/сек
Стандарт вещания                         : PAL
Цветовое пространство                    : YUV
Субдискретизация насыщенности            : 4:2:0
Битовая глубина                          : 8 бит
Тип развёртки                            : Прогрессивная
Метод сжатия                             : С потерями
Бит/(Пиксели*Кадры)                      : 0.314
Временной код первого кадра              : 00:00:00:00
Оригинал временного кода                 : Group of pictures header
Размер потока                            : 1,13 Гбайт (96%)
Основные цвета                           : BT.601 PAL
Характеристики трансфера                 : BT.470 System B, BT.470 System G
Коэффициенты матрицы                     : BT.601

Аудио
Идентификатор                            : 192 (0xC0)
Формат                                   : MPEG Audio
Версия формата                           : Version 1
Профиль формата                          : Layer 2
Продолжительность                        : 9 м. 54 с.
Вид битрейта                             : Постоянный
Битрейт                                  : 320 Кбит/сек
Каналы                                   : 2 канала
Частота                                  : 48,0 КГц
Метод сжатия                             : С потерями
Размер потока                            : 22,7 Мбайт (2%)

Подскажите что делать? Может есть хорошие платные конверторы?
Написано:  23 Окт 2013 10:02
Не знаю точно есть ли такой косяк на нем, попробуйте переименовать сконверченные файлы, добавив вначале пару букв на английском или цифр.
__________________
Sharp LC-32X20RU + WDTV Gen2 + WDTV Live (если понравилось 41001352107159 яндекс)
Написано:  23 Окт 2013 10:14
Два файла он читает, но изображение нет, идет только звук. А файл mov не читает вообще, пишет, что неподдерживаемый формат.
Написано:  23 Окт 2013 11:04   Отредактировано: touch
ну quick tome кодека в wdtv вроде бы никогда не было, так что с mov всё понятно.. а вот с avi не совсем понятно, с параметрами кодирования вроде всё ок, должен бы читать! хм..

из конвертеров, можно ещё Handbrake попробовать, он бесплатный и есть версия для макос
__________________
Где купить WD TV: Live Streaming
Написано:  23 Окт 2013 11:34   Отредактировано: Gromootvod
попробую
Написано:  23 Окт 2013 12:23   Отредактировано: DJArty
Цитата:
в wdtv вроде бы никогда не было

а помоему WD TV Live mov поддерживает (да, возможно какуюто специфическую вариацию типа h264 а не AIC)
А вот именно Play известно что урезан по поддерживаемым кодекам потому многое может не проиграть.
__________________
WD TV Live (1.02.21-..-0.4.7.3)
Для пива: WM R161810775332(руб);WM Z114867333413($);WM U219453404899(грн); Я.Money:410011402801986
Filmsonline, русский поиск ->Мэйл<- IPTV
Написано:  23 Окт 2013 14:04
Цитата:
WD TV Live mov поддерживает

не, я именно про этот конкретный MOV, который MOV/QuickTime
__________________
Где купить WD TV: Live Streaming
Написано:  23 Окт 2013 15:49
Старичок лайв может и мов, вот например такое проверял
[ Скрытый текст ]
. А автору совет тогда переконвертировать в ави с кодеком Xvid  и на всякий случай перед проверкой полностью отрубить от розетки вдшку.
__________________
Sharp LC-32X20RU + WDTV Gen2 + WDTV Live (если понравилось 41001352107159 яндекс)
Написано:  23 Окт 2013 16:43
Пока не могу найти нормальный конвертор.
Написано:  23 Окт 2013 22:12
Цитата:
Старичок лайв может и мов, вот например такое проверял

о дела! ну круто тогда!
я видать отстал от жизни.. бывает
__________________
Где купить WD TV: Live Streaming
Написано:  05 Ноя 2013 11:54
Попробовал сделать фильм с кодеком H.264, тоже не читается(((((
Полное имя                               : G:\Veronika 13 let.mov
Формат                                   : MPEG-4
Профиль формата                          : QuickTime
Идентификатор кодека                     : qt 
Размер файла                             : 171 Мбайт
Продолжительность                        : 17 с.
Общий поток                              : 82,4 Мбит/сек
Дата кодирования                         : UTC 2013-11-04 13:54:01
Дата пометки                             : UTC 2013-11-04 13:58:10
Библиотека кодирования                   : Apple QuickTime

Видео
Идентификатор                            : 1
Формат                                   : AVC
Формат/Информация                        : Advanced Video Codec
Профиль формата                          : Main@L5.0
Параметр CABAC формата                   : Нет
Параметр ReFrames формата                : 2 кадра
Параметр GOP формата                     : M=2, N=60
Идентификатор кодека                     : avc1
Идентификатор кодека/Информация          : Advanced Video Coding
Продолжительность                        : 17 с.
Продолжительность оригинала              : 17 с.
Битрейт                                  : 82,2 Мбит/сек
Ширина                                   : 1888 пикселей
Ширина оригинала                         : 1920 пикселей
Высота                                   : 1062 пикселя
Высота оригинала                         : 1080 пикселей
Соотношение сторон                       : 16:9
Режим частоты кадров                     : Постоянный
Частота кадров                           : 25,000 кадров/сек
Цветовое пространство                    : YUV
Субдискретизация насыщенности            : 4:2:0
Битовая глубина                          : 8 бит
Тип развёртки                            : Прогрессивная
Бит/(Пиксели*Кадры)                      : 1.641
Размер потока                            : 171 Мбайт (100%)
Размер потока оригинала                  : 171 Мбайт (100%)
Заголовок                                : Ћбработчик видео Apple / Ћбработчик псевдонимов Apple
Язык                                     : English
Дата кодирования                         : UTC 2013-11-04 13:57:48
Дата пометки                             : UTC 2013-11-04 13:58:10
Основные цвета                           : BT.709
Характеристики трансфера                 : BT.709
Коэффициенты матрицы                     : BT.709

Аудио
Идентификатор                            : 2
Формат                                   : AAC
Формат/Информация                        : Advanced Audio Codec
Профиль формата                          : HE-AACv2 / HE-AAC / LC
Идентификатор кодека                     : 40
Продолжительность                        : 17 с.
Продолжительность оригинала              : 17 с.
Вид битрейта                             : Постоянный
Битрейт                                  : 56,0 Кбит/сек
Каналы                                   : 2 канала / 2 канала / 2 канала
Расположение каналов                     : Front: L R / Front: L R / Front: L R
Частота                                  : 32,0 КГц / 32,0 КГц / 16,0 КГц
Метод сжатия                             : С потерями
Размер потока                            : 121 Кбайт (0%)
Размер потока оригинала                  : 122 Кбайт (0%)
Заголовок                                : Ћбработчик звука Apple / Ћбработчик псевдонимов Apple
Язык                                     : English
Дата кодирования                         : UTC 2013-11-04 13:57:49
Дата пометки                             : UTC 2013-11-04 13:58:10
Написано:  05 Ноя 2013 14:32   Отредактировано: DJArty
Цитата:
Профиль формата                          : QuickTime
Идентификатор кодека                     : qt 
Общий поток                              : 82,4 Мбит/сек
Библиотека кодирования                   : Apple QuickTime
...
Формат                                   : AVC
..

Что то не заметно... да и 82,4 Мбит/сек не перебор ли?
__________________
WD TV Live (1.02.21-..-0.4.7.3)
Для пива: WM R161810775332(руб);WM Z114867333413($);WM U219453404899(грн); Я.Money:410011402801986
Filmsonline, русский поиск ->Мэйл<- IPTV
Написано:  05 Ноя 2013 15:55   Отредактировано: DJArty
Разместили бы уже сэмпл (тут например) что бы прояснить - именно Play не хочет играть или вся линейка WD в целом или таки видео кодируется как то не так )
__________________
WD TV Live (1.02.21-..-0.4.7.3)
Для пива: WM R161810775332(руб);WM Z114867333413($);WM U219453404899(грн); Я.Money:410011402801986
Filmsonline, русский поиск ->Мэйл<- IPTV
Написано:  05 Ноя 2013 17:04
кстати да, семпл был бы кстати
__________________
Где купить WD TV: Live Streaming
Написано:  06 Ноя 2013 10:14
Сэмпл завтра размещу.
Написано:  06 Ноя 2013 20:11
Gromootvod, у меня тоже плей, отправь Сэмпл я тоже проверю
Написано:  06 Ноя 2013 20:31
Я смотрю первые владельцы Play появились. Пора чтоли делать отдельный подфорум про него?
Написано:  07 Ноя 2013 08:55
Угу,правда похоже владельцев будет немного как и с Элементс.
__________________
Sharp LC-32X20RU + WDTV Gen2 + WDTV Live (если понравилось 41001352107159 яндекс)
Написано:  07 Ноя 2013 10:03
Сэмпл http://www.ex.ua/747599933130
Написано:  07 Ноя 2013 10:16
Админ, будет отлично, если будет отдельный раздел для плей. Например я, многим могу помочь
Написано:  07 Ноя 2013 10:34
Сэмпл вполне себе работает на WD TV Live с флэшки к нему подключенной. Кстати автор не уточнял с какого носителя пытается воспроизводить?
Если так же с флэшки не работает, то можно делать новый раздел - "новые play которые не стоит покупать" :-)
__________________
WD TV Live (1.02.21-..-0.4.7.3)
Для пива: WM R161810775332(руб);WM Z114867333413($);WM U219453404899(грн); Я.Money:410011402801986
Filmsonline, русский поиск ->Мэйл<- IPTV
Написано:  07 Ноя 2013 10:43   Отредактировано: alukard
что-то долго скачает файл . Автор можешь загрузить на другой файлобменник?
Написано:  07 Ноя 2013 11:17   Отредактировано: touch
да вроде качается потихоньку.. не быстро, но и не совсем уж тормоза.. пока жду, полез руководство пользователя поискать, так вот в мануале wdtv play чёрным по белому, первой же строкой:
Цитата:
Поддерживаемые форматы

Расширение файла: .3g2/.3gp/.mov/.mp4
Кодек (видео): AVC/H264,MPEG-4,M-JPEG
Кодек (звук): AAC,AC3,MPEG Audio,PCM
Формат/контейнер: QuickTime

по идее - должен бы играть! причём даже в QuickTime MOV контейнере
__________________
Где купить WD TV: Live Streaming
Написано:  07 Ноя 2013 11:38
Написано то написано, я его и покупал спецом что бы смотреть видео которое сам монтирую на Маке. А он мне пишет, что нечитаемый формат(((( Воспроизвожу с жесткого  диска WD My passport
Написано:  07 Ноя 2013 11:48   Отредактировано: touch
Gromootvod, в-общем, про play не скажу, но streaming без проблем читает этот mov!
попробуй скачай вот такой вариант, я тебе перекодировал в mp4/h.264
если и он не будет читаться, то вообще непонятно
http://www.ex.ua/728569122390
__________________
Где купить WD TV: Live Streaming
Написано:  07 Ноя 2013 11:51
да, перед воспроизведением выключить/включить плеер из розетки.. вообще после каждого зависания типа "не могу воспроизвести" рекомендую это проделывать.. на старых плеерах были такие проблемы - не игрались нормальные файлы после ошибочных
__________________
Где купить WD TV: Live Streaming

Поделитесь со своими друзьями в соцсетях:

WDTV Forum / Форум про HD фильмы / Эти фильмы не идут / WD TV Play не читает файлы с расширением mov