Неофициальный клуб пользователей HD видео плеера WD TV


»Юзер: »Пароль:   Запомнить? 
WDTV Forum / Форум про WD TV Live Streaming / Опыт эксплуатации / Не воспроизводит видео с miniDV кассеты
Написано:  24 Дек 2012 11:03
Здравствуйте.
Плейер не воспроизводит файлы, записанные на miniDV кассету. Ругается на формат файла. Это лечится?
Написано:  24 Дек 2012 11:11
Ну для начала непомешает медиаинфо, на расстоянии его несчитываем http://wdhd.ru/faq.php?q_id=21 !?
__________________
Sharp LC-32X20RU + WDTV Gen2 + WDTV Live (если понравилось 41001352107159 яндекс)
Написано:  24 Дек 2012 12:21   Отредактировано: touch
тут смотря как именно видео сливалось с кассет.. если "как есть", то там dv кодек - вряд ли wdtv научился его играть! поищи в форуме по слову "mini-dv", уже обсуждался этот вопрос, правда для предыдущих плееров - но суть та же.. но таки да - без mediainfo всё равно не разобраться!
__________________
Где купить WD TV: Live Streaming
Написано:  25 Дек 2012 07:16
Спасибо.
Не догадался поискать  форумах с другими версиями WD TV. Насколько я понял - без перекодирования здесь не обойтись.
Медиаинфо:
Общее
Полное имя                               : H:\дача2.avi
Формат                                   : AVI
Формат/Информация                        : Audio Video Interleave
Коммерческое название                    : DVCPRO
Размер файла                             : 595 Мбайт
Продолжительность                        : 2 м. 52 с.
Режим общего битрейта                    : Постоянный
Общий поток                              : 28,9 Мбит/сек
Дата записи                              : 2006-01-01 00:00:00.000

Видео
Идентификатор                            : 0
Формат                                   : DV
Коммерческое название                    : DVCPRO
Продолжительность                        : 2 м. 52 с.
Вид битрейта                             : Постоянный
Битрейт                                  : 24,4 Мбит/сек
Закодированный битрейт                   : 28,8 Мбит/сек
Ширина                                   : 720 пикселей
Высота                                   : 576 пикселей
Соотношение сторон                       : 4:3
Режим частоты кадров                     : Постоянный
Частота кадров                           : 25,000 кадров/сек
Стандарт вещания                         : PAL
Субдискретизация насыщенности            : 4:2:0
Битовая глубина                          : 8 бит
Тип развёртки                            : Чересстрочная
Порядок развёртки                        : Нижнее поле первое
Метод сжатия                             : С потерями
Бит/(Пиксели*Кадры)                      : 2.357
Размер потока                            : 593 Мбайт (100%)

Аудио #1
Идентификатор                            : 0-0
Формат                                   : PCM
Режим смешивания                         : DV
Режим смешивания, доп. информация        : Muxed in Video #1
Продолжительность                        : 2 м. 52 с.
Вид битрейта                             : Постоянный
Битрейт                                  : 768 Кбит/сек
Закодированный битрейт                   : 0 бит/сек
Каналы                                   : 2 канала
Частота                                  : 32,0 КГц
Битовая глубина                          : 12 бит
Размер потока                            : 15,8 Мбайт (3%)
Закодированный размер потока             : 0,00 байт (0%)

Аудио #2
Идентификатор                            : 0-1
Формат                                   : PCM
Режим смешивания                         : DV
Режим смешивания, доп. информация        : Muxed in Video #1
Продолжительность                        : 2 м. 52 с.
Вид битрейта                             : Постоянный
Битрейт                                  : 768 Кбит/сек
Закодированный битрейт                   : 0 бит/сек
Каналы                                   : 2 канала
Частота                                  : 32,0 КГц
Битовая глубина                          : 12 бит
Размер потока                            : 15,8 Мбайт (3%)
Закодированный размер потока             : 0,00 байт (0%)

Т.е. порядок действия таков -  в Сони Вегасе монтируем и выводим готовый "фильм" в чём-то, что WD TV видит без проблем. Посоветуйте, в чём именно лучше сохранять?

И ещё вопрос, который поднимался год назад на форуме:
http://wdhd.ru/board/index.php?a=vtopic&t=3704
Некорректно воспроизводит видео, снятое Панасоником,
странно, что в одном файле начало - с частым постоянным подёргиванием, а середина - совершенно нормально, плавно. Как с этим бороться?

Медиаинфо:
Общее
Идентификатор                            : 1 (0x1)
Полное имя                               : H:\12-21-2012\12-21-2012_111115.m2ts
Формат                                   : BDAV
Формат/Информация                        : Blu-ray Video
Размер файла                             : 366 Мбайт
Продолжительность                        : 2 м. 2 с.
Режим общего битрейта                    : Переменный
Общий поток                              : 25,0 Мбит/сек
Максимальный общий битрейт               : 28,0 Мбит/сек

Видео
Идентификатор                            : 4113 (0x1011)
Идентификатор меню                       : 1 (0x1)
Формат                                   : AVC
Формат/Информация                        : Advanced Video Codec
Профиль формата                          : High@L4.2
Параметр CABAC формата                   : Да
Параметр ReFrames формата                : 2 кадра
Параметр GOP формата                     : M=3, N=24
Идентификатор кодека                     : 27
Продолжительность                        : 2 м. 2 с.
Вид битрейта                             : Переменный
Битрейт                                  : 23,8 Мбит/сек
Максимальный битрейт                     : 25,0 Мбит/сек
Ширина                                   : 1920 пикселей
Высота                                   : 1080 пикселей
Соотношение сторон                       : 16:9
Частота кадров                           : 50,000 кадров/сек
Цветовое пространство                    : YUV
Субдискретизация насыщенности            : 4:2:0
Битовая глубина                          : 8 бит
Тип развёртки                            : Прогрессивная
Бит/(Пиксели*Кадры)                      : 0.229
Размер потока                            : 347 Мбайт (95%)

Аудио
Идентификатор                            : 4352 (0x1100)
Идентификатор меню                       : 1 (0x1)
Формат                                   : AC-3
Формат/Информация                        : Audio Coding 3
Расширение режима                        : CM (complete main)
Параметр Endianness формата              : Big
Идентификатор кодека                     : 129
Продолжительность                        : 2 м. 2 с.
Вид битрейта                             : Постоянный
Битрейт                                  : 256 Кбит/сек
Каналы                                   : 2 канала
Расположение каналов                     : Front: L R
Частота                                  : 48,0 КГц
Битовая глубина                          : 16 бит
Метод сжатия                             : С потерями
Задержка видео                           : -40 мс.
Размер потока                            : 3,74 Мбайт (1%)

Текст
Идентификатор                            : 4608 (0x1200)
Идентификатор меню                       : 1 (0x1)
Формат                                   : PGS
Идентификатор кодека                     : 144
Продолжительность                        : 2 м. 1 с.
Задержка видео                           : -40 мс.
Написано:  25 Дек 2012 08:19
Ну да перекодировать, сохранять с кодеками которые заявлены .  Для видео с 50 кадров ждать новых прошивок .
__________________
Sharp LC-32X20RU + WDTV Gen2 + WDTV Live (если понравилось 41001352107159 яндекс)
Написано:  25 Дек 2012 09:31
ОК, видео с 50 кадрами не понимает только стриминг, или никакой из WD TV?
Написано:  25 Дек 2012 09:48
Только стриминг, точнее плавно невоспроизводит. ген2 и лайв его нормально крутят, насчет хаба точно непомню .
__________________
Sharp LC-32X20RU + WDTV Gen2 + WDTV Live (если понравилось 41001352107159 яндекс)
Написано:  25 Дек 2012 20:40
Спасибо

Поделитесь со своими друзьями в соцсетях:

WDTV Forum / Форум про WD TV Live Streaming / Опыт эксплуатации / Не воспроизводит видео с miniDV кассеты