Неофициальный клуб пользователей HD видео плеера WD TV


»Юзер: »Пароль:   Запомнить? 
Написано:  18 Дек 2012 12:12
Привет. Простите, очень далек от темы, поэтому не могу понять почему не читает это: http://rutracker.org/forum/viewtopic.php?t=3779375.
От обилия инфы на форуме не знаю куда копать, но уже попробовал: прошился с 1.02.21 до последней(причем пока не прошился, то файл читался, но с диким отставанием звука или картинки, точно не помню. После прошивки сразу пишет, что не поддерживается формат, читать руководство.) перехешировал торр., мультиплексировал в mkvtoolnix-unicode-4.0.0(не знаю для чего)) Плеер hdtv live.
[ Скрытый текст ]
Написано:  18 Дек 2012 14:47
Дело в разрешении - Ширина    : 1 920 пикс.
                    Высота     : 2 080 пикс.

Для 3D пора брать другой плеер .
__________________
Sharp LC-32X20RU + WDTV Gen2 + WDTV Live (если понравилось 41001352107159 яндекс)
Написано:  18 Дек 2012 16:40
Спасибо.
Написано:  18 Дек 2012 18:41
Вам, эта раздача нужна: http://rutracker.org/forum/viewtopic.php?t=3539415
__________________
WD TV Live(00) 1.02.21; WD TV Live(Gen3) 1.07.15
Написано:  18 Дек 2012 23:35
Да, спс, альтернатив достаточно, просто хотелось понять, в чем же все таки загвоздка именно той раздачи...
Написано:  22 Окт 2014 22:03
Общее
Уникальный идентификатор                 : 198642495668277738555361957445254733905 (0x9571272F2BFC205382E6B3BAF8436051)
Полное имя                               : D:\фильмы\How to Train Your Dragon 2.Rip by SeRoGa00.mkv
Формат                                   : Matroska
Версия формата                           : Version 2
Размер файла                             : 10,5 Гбайт
Продолжительность                        : 1 ч. 41 м.
Общий поток                              : 14,8 Мбит/сек
Дата кодирования                         : UTC 2014-10-19 05:53:39
Программа кодирования                    : mkvmerge v3.4.0 ('Rapunzel') сборка от May 15 2010 09:38:20
Библиотека кодирования                   : libebml v0.8.0 + libmatroska v0.9.0

Видео
Идентификатор                            : 1
Формат                                   : AVC
Формат/Информация                        : Advanced Video Codec
Профиль формата                          : High@L5.0
Параметр CABAC формата                   : Да
Параметр ReFrames формата                : 4 кадра
Идентификатор кодека                     : V_MPEG4/ISO/AVC
Продолжительность                        : 1 ч. 41 м.
Битрейт                                  : 13,1 Мбит/сек
Ширина                                   : 1920 пикселей
Высота                                   : 1600 пикселей
Соотношение сторон                       : 1,200
Режим частоты кадров                     : Постоянный
Частота кадров                           : 23,976 кадра/сек
Цветовое пространство                    : YUV
Субдискретизация насыщенности            : 4:2:0
Битовая глубина                          : 8 бит
Тип развёртки                            : Прогрессивная
Бит/(Пиксели*Кадры)                      : 0.177
Размер потока                            : 9,29 Гбайт (88%)
Заголовок                                : Rip by SeRoGa00
Библиотека кодирования                   : x264 core 142 r2431 ac76440
Настройки программы                      : cabac=1 / ref=4 / deblock=1:-3:-3 / analyse=0x3:0x113 / me=umh / subme=9 / psy=1 / psy_rd=1.00:0.15 / mixed_ref=1 / me_range=24 / chroma_me=1 / trellis=2 / 8x8dct=1 / cqm=0 / deadzone=21,11 / fast_pskip=1 / chroma_qp_offset=-3 / threads=9 / lookahead_threads=1 / sliced_threads=0 / nr=0 / decimate=1 / interlaced=0 / bluray_compat=0 / constrained_intra=0 / bframes=8 / b_pyramid=2 / b_adapt=2 / b_bias=0 / direct=3 / weightb=1 / open_gop=0 / weightp=2 / keyint=250 / keyint_min=23 / scenecut=40 / intra_refresh=0 / rc_lookahead=60 / rc=crf / mbtree=1 / crf=18.0 / qcomp=0.60 / qpmin=10 / qpmax=69 / qpstep=4 / vbv_maxrate=30000 / vbv_bufsize=30000 / crf_max=0.0 / nal_hrd=none / filler=0 / ip_ratio=1.40 / aq=1:1.00
Язык                                     : English
Default                                  : Нет
Forced                                   : Нет

Аудио #1
Идентификатор                            : 2
Формат                                   : DTS
Формат/Информация                        : Digital Theater Systems
Режим                                    : 16
Параметр Endianness формата              : Big
Идентификатор кодека                     : A_DTS
Продолжительность                        : 1 ч. 41 м.
Вид битрейта                             : Постоянный
Битрейт                                  : 768 Кбит/сек
Каналы                                   : 6 каналов
Расположение каналов                     : Front: L C R, Side: L R, LFE
Частота                                  : 48,0 КГц
Битовая глубина                          : 24 бит
Метод сжатия                             : С потерями
Размер потока                            : 560 Мбайт (5%)
Язык                                     : Russian
Default                                  : Да
Forced                                   : Нет

Аудио #2
Идентификатор                            : 3
Формат                                   : AC-3
Формат/Информация                        : Audio Coding 3
Расширение режима                        : CM (complete main)
Параметр Endianness формата              : Big
Идентификатор кодека                     : A_AC3
Продолжительность                        : 1 ч. 41 м.
Вид битрейта                             : Постоянный
Битрейт                                  : 640 Кбит/сек
Каналы                                   : 6 каналов
Расположение каналов                     : Front: L C R, Side: L R, LFE
Частота                                  : 48,0 КГц
Битовая глубина                          : 16 бит
Метод сжатия                             : С потерями
Размер потока                            : 467 Мбайт (4%)
Язык                                     : English
Default                                  : Нет
Forced                                   : Нет
wd tv не хочет читать mkv
Написано:  22 Окт 2014 22:09
не много далек от темы не пойму че ему не нравиться?
Написано:  23 Окт 2014 09:54
И опять дело в разрешении,больше 1920х1080 вдшка не будет воспроизводить.
__________________
Sharp LC-32X20RU + WDTV Gen2 + WDTV Live (если понравилось 41001352107159 яндекс)

Поделитесь со своими друзьями в соцсетях: