Неофициальный клуб пользователей HD видео плеера WD TV


»Юзер: »Пароль:   Запомнить? 
WDTV Forum / Форум про WD TV Live / Опыт эксплуатации / Не читает фильмы тяжелее 2 гб
Написано:  28 Ноя 2012 23:20
Подскажите пож-та, не пойму в чем дело. Недавно куплен плеер этой модели, но он не читает фильмы тяжелее 2 гб, выходит сообщение, что такие файлы не поддерживаются. Что можно сделать? Заранее спасибо
Написано:  29 Ноя 2012 08:22
Изучаем http://wdhd.ru/board/index.php?a=vtopic&t=1246 , приводим медиаинфо и говорим как смотрится фильм !?
__________________
Sharp LC-32X20RU + WDTV Gen2 + WDTV Live (если понравилось 41001352107159 яндекс)
Написано:  08 Дек 2012 22:39
Общее
Уникальный идентификатор                 : 204235977193628999630399915408912452656 (0x99A66B1D900839DBA41438FDDEE68C30)
Полное имя                               : I:\gavno.avi
Формат                                   : Matroska
Версия формата                           : Version 2
Размер файла                             : 3,36 Гбайт
Продолжительность                        : 1 ч. 31 м.
Общий поток                              : 5261 Кбит/сек
Название фильма                          : IRONCLUB
Дата кодирования                         : UTC 2012-09-16 08:14:31
Программа кодирования                    : mkvmerge v5.5.0 ('Healer') built on Apr 24 2012 23:47:03
Библиотека кодирования                   : libebml v1.2.3 + libmatroska v1.3.0

Видео
Идентификатор                            : 1
Формат                                   : AVC
Формат/Информация                        : Advanced Video Codec
Профиль формата                          : High@L4.1
Параметр CABAC формата                   : Да
Параметр ReFrames формата                : 9 кадров
Режим смешивания                         : Header stripping
Идентификатор кодека                     : V_MPEG4/ISO/AVC
Продолжительность                        : 1 ч. 31 м.
Битрейт                                  : 4880 Кбит/сек
Ширина                                   : 1280 пикселей
Высота                                   : 720 пикселей
Соотношение сторон                       : 16:9
Режим частоты кадров                     : Постоянный
Частота кадров                           : 23,976 кадра/сек
Цветовое пространство                    : YUV
Субдискретизация насыщенности            : 4:2:0
Битовая глубина                          : 8 бит
Тип развёртки                            : Прогрессивная
Бит/(Пиксели*Кадры)                      : 0.221
Размер потока                            : 3,05 Гбайт (91%)
Заголовок                                : Sofia.2012.720p.BluRay.DTS.x264-EbP
Библиотека кодирования                   : x264 core 125 r2208 d9d2288
Настройки программы                      : cabac=1 / ref=9 / deblock=1:-3:-3 / analyse=0x3:0x113 / me=tesa / subme=11 / psy=1 / psy_rd=1.05:0.00 / mixed_ref=1 / me_range=16 / chroma_me=1 / trellis=2 / 8x8dct=1 / cqm=0 / deadzone=21,11 / fast_pskip=0 / chroma_qp_offset=-2 / threads=12 / lookahead_threads=2 / sliced_threads=0 / nr=0 / decimate=0 / interlaced=0 / bluray_compat=0 / constrained_intra=0 / bframes=9 / b_pyramid=2 / b_adapt=2 / b_bias=0 / direct=3 / weightb=1 / open_gop=0 / weightp=2 / keyint=250 / keyint_min=23 / scenecut=40 / intra_refresh=0 / rc=2pass / mbtree=0 / bitrate=4880 / ratetol=1.0 / qcomp=0.60 / qpmin=0 / qpmax=69 / qpstep=4 / cplxblur=20.0 / qblur=0.5 / ip_ratio=1.40 / pb_ratio=1.30 / aq=1:0.60
Язык                                     : English
Default                                  : Да
Forced                                   : Да

Аудио
Идентификатор                            : 2
Формат                                   : AC-3
Формат/Информация                        : Audio Coding 3
Расширение режима                        : CM (complete main)
Параметр Endianness формата              : Big
Режим смешивания                         : Header stripping
Идентификатор кодека                     : A_AC3
Продолжительность                        : 1 ч. 31 м.
Вид битрейта                             : Постоянный
Битрейт                                  : 384 Кбит/сек
Каналы                                   : 6 каналов
Расположение каналов                     : Front: L C R, Side: L R, LFE
Частота                                  : 48,0 КГц
Битовая глубина                          : 16 бит
Метод сжатия                             : С потерями
Размер потока                            : 251 Мбайт (7%)
Заголовок                                : DD 5.1 @ 384 kbps - MVO, R5
Язык                                     : Russian
Default                                  : Да
Forced                                   : Да

Меню
00:00:00.000                             : en:00:00:00.000
00:06:17.419                             : en:00:06:17.419
00:16:10.469                             : en:00:16:10.469
00:21:57.149                             : en:00:21:57.149
00:28:42.137                             : en:00:28:42.137
00:37:19.320                             : en:00:37:19.320
00:46:06.889                             : en:00:46:06.889
00:55:28.283                             : en:00:55:28.283
01:01:58.757                             : en:01:01:58.757
01:11:09.807                             : en:01:11:09.807
01:17:29.854                             : en:01:17:29.854
01:26:26.807                             : en:01:26:26.807

Файл не читается, все, что тяжелее 2,5 гигов не чиается
Написано:  08 Дек 2012 22:50
изменила формат с avi на mkv - результата никакого
Написано:  08 Дек 2012 23:26
Спасибо, разобралась, все сделала, как тему удалить?
Написано:  09 Дек 2012 09:00
Тему могу удалить только модератор или администратор, а у вас дело было похоже в сжатии заголовков .
__________________
Sharp LC-32X20RU + WDTV Gen2 + WDTV Live (если понравилось 41001352107159 яндекс)

Поделитесь со своими друзьями в соцсетях:

WDTV Forum / Форум про WD TV Live / Опыт эксплуатации / Не читает фильмы тяжелее 2 гб