Неофициальный клуб пользователей HD видео плеера WD TV


»Юзер: »Пароль:   Запомнить? 
WDTV Forum / Форум про WD TV Live Streaming / Опыт эксплуатации / Передача звука по оптике на домашний кинотеатр, пробле
Написано:  17 Окт 2012 10:40
Добрый день. WD TV Live подключил к домашнему кинотеатру PHILIPS 3593 по оптическому кабелю. В настройках приставки выбрал передачу звука только по оптике, выбрал все возможные форматы. В итоге когда на домашнем кинотеатре ставлю автоопределение формата звука, то все отлично, но только в стерео на фронтальные колонки! Когда в домашнем кинотеатре ставлю Мультиканальный источник звука, то все музыкальное и эффектное сопровождение фильмов выдается на все колонки 5.1 в ощутимо "объемном" формате. НО, голос при этом всех героев вообще не слышно, очень тихо где-то на заднем фоне, разобрать невозможно, увеличение громкости ничего не дает, только музыка грохочет.
Фильмы пробовал всякие, формат mkv, звуковые дорожки Dolby Digital и DTS 6 channel, все равно только музыка, голос появляется есть в кинотеатре выставлять стерео или авто.
Что делать, где копать, подскажите плиз?
Написано:  17 Окт 2012 14:10   Отредактировано: DJArty
Указывайте конкретный пример, конкретного фильма, что бы другие могли перепроверить на своих девайсах.
__________________
WD TV Live (1.02.21-..-0.4.7.3)
Для пива: WM R161810775332(руб);WM Z114867333413($);WM U219453404899(грн); Я.Money:410011402801986
Filmsonline, русский поиск ->Мэйл<- IPTV
Написано:  17 Окт 2012 20:17
Добрый день.

Вот пример описания конкретного файла, но я еще не нашел такой который бы проигрался нормально...

Общее
Уникальный идентификатор                 : 174980144963117272548612788840347149740 (0x83A3F338D228ECF78A034BA6484725AC)
Полное имя                               : F:\Movies\Люди в черном 3 HD.mkv
Формат                                   : Matroska
Версия формата                           : Version 2
Размер файла                             : 5,76 Гбайт
Продолжительность                        : 1 ч. 45 м.
Общий поток                              : 7791 Кбит/сек
Название фильма                          : Люди в черном 3 / Men in Black 3 (2012)
Дата кодирования                         : UTC 2012-09-09 06:28:03
Программа кодирования                    : mkvmerge v5.8.0 ('No Sleep / Pillow') built on Sep  2 2012 15:37:04
Библиотека кодирования                   : libebml v1.2.3 + libmatroska v1.3.0

Видео
Идентификатор                            : 1
Формат                                   : AVC
Формат/Информация                        : Advanced Video Codec
Профиль формата                          : High@L4.1
Параметр CABAC формата                   : Да
Параметр ReFrames формата                : 4 кадра
Идентификатор кодека                     : V_MPEG4/ISO/AVC
Продолжительность                        : 1 ч. 45 м.
Битрейт                                  : 6706 Кбит/сек
Ширина                                   : 1920 пикселей
Высота                                   : 1040 пикселей
Соотношение сторон                       : 1,85:1
Режим частоты кадров                     : Постоянный
Частота кадров                           : 23,976 кадра/сек
Цветовое пространство                    : YUV
Субдискретизация насыщенности            : 4:2:0
Битовая глубина                          : 8 бит
Тип развёртки                            : Прогрессивная
Бит/(Пиксели*Кадры)                      : 0.140
Размер потока                            : 4,84 Гбайт (84%)
Заголовок                                : Release by AlexKa
Библиотека кодирования                   : x264 core 125 r2208 d9d2288
Настройки программы                      : cabac=1 / ref=4 / deblock=1:-3:-3 / analyse=0x3:0x133 / me=umh / subme=10 / psy=1 / psy_rd=1.00:0.10 / mixed_ref=1 / me_range=32 / chroma_me=1 / trellis=2 / 8x8dct=1 / cqm=0 / deadzone=21,11 / fast_pskip=0 / chroma_qp_offset=-3 / threads=12 / lookahead_threads=2 / sliced_threads=0 / nr=0 / decimate=0 / interlaced=0 / bluray_compat=0 / constrained_intra=0 / bframes=5 / b_pyramid=2 / b_adapt=2 / b_bias=0 / direct=3 / weightb=1 / open_gop=0 / weightp=2 / keyint=240 / keyint_min=23 / scenecut=40 / intra_refresh=0 / rc=2pass / mbtree=0 / bitrate=6706 / ratetol=1.0 / qcomp=0.60 / qpmin=0 / qpmax=69 / qpstep=4 / cplxblur=20.0 / qblur=0.5 / ip_ratio=1.40 / pb_ratio=1.30 / aq=1:0.80
Язык                                     : English
Default                                  : Да
Forced                                   : Нет

Аудио #1
Идентификатор                            : 2
Формат                                   : AC-3
Формат/Информация                        : Audio Coding 3
Расширение режима                        : CM (complete main)
Параметр Endianness формата              : Big
Идентификатор кодека                     : A_AC3
Продолжительность                        : 1 ч. 45 м.
Вид битрейта                             : Постоянный
Битрейт                                  : 640 Кбит/сек
Каналы                                   : 6 каналов
Расположение каналов                     : Front: L C R, Side: L R, LFE
Частота                                  : 48,0 КГц
Битовая глубина                          : 16 бит
Метод сжатия                             : С потерями
Размер потока                            : 484 Мбайт (8%)
Заголовок                                : Rus
Язык                                     : Russian
Default                                  : Да
Forced                                   : Нет

Аудио #2
Идентификатор                            : 3
Формат                                   : AC-3
Формат/Информация                        : Audio Coding 3
Расширение режима                        : CM (complete main)
Параметр Endianness формата              : Big
Идентификатор кодека                     : A_AC3
Продолжительность                        : 1 ч. 45 м.
Вид битрейта                             : Постоянный
Битрейт                                  : 448 Кбит/сек
Каналы                                   : 6 каналов
Расположение каналов                     : Front: L C R, Side: L R, LFE
Частота                                  : 48,0 КГц
Битовая глубина                          : 16 бит
Метод сжатия                             : С потерями
Размер потока                            : 339 Мбайт (6%)
Заголовок                                : Eng
Язык                                     : English
Default                                  : Нет
Forced                                   : Нет
Написано:  28 Окт 2012 20:54
Добрый день.

Хелп, неужели никто с такой проблемой не сталкивался? Идти менять коробочку? Медиатека не составляется, виснет, звук (голос) по оптике не передается... Напрямую через домашний кинотеатр те же фильмы играют без проблем...

Поделитесь со своими друзьями в соцсетях:

WDTV Forum / Форум про WD TV Live Streaming / Опыт эксплуатации / Передача звука по оптике на домашний кинотеатр, пробле