Неофициальный клуб пользователей HD видео плеера WD TV


»Юзер: »Пароль:   Запомнить? 
WDTV Forum / Форум про WD TV Live / Опыт эксплуатации / Такая проблема - скачет звук
Написано:  17 Сен 2012 15:52
Скачет звук при воспроизведении видеофайлов(то громче-то тише).Подключен напрямую к телеку через HDMI.Посоветуйте что делать?
Написано:  17 Сен 2012 15:58
На всех файлах или только на определенных(то тогда медиаифно http://wdhd.ru/faq.php?q_id=21 ) ?
__________________
Sharp LC-32X20RU + WDTV Gen2 + WDTV Live (если понравилось 41001352107159 яндекс)
Написано:  21 Сен 2012 15:56
Скачет звук на всех файлах.
Написано:  21 Сен 2012 19:19
А вовремя этих скачков каких-нибудь помеха на экране нет ? Ну и на всякий случай, медиаинфо 1 файлика скопируйте.
__________________
Sharp LC-32X20RU + WDTV Gen2 + WDTV Live (если понравилось 41001352107159 яндекс)
Написано:  22 Сен 2012 05:37
Общее
Полное имя                               : C:\Users\User\Downloads\Lyudi.v.chernom.3.2012.DUAL.BDRip.XviD.AC3.-HQCLUB\Lyudi.v.chernom.3.2012.DUAL.BDRip.XviD.AC3.-HQCLUB.avi
Формат                                   : AVI
Формат/Информация                        : Audio Video Interleave
Профиль формата                          : OpenDML
Размер файла                             : 2,18 Гбайт
Продолжительность                        : 1 ч. 45 м.
Общий поток                              : 2952 Кбит/сек
Название фильма                          : Люди в черном 3 / Men in Black 3 (2012) BDRip
Режиссёр                                 : MOSFET
Жанр                                     : фантастика, боевик, комедия
Программа кодирования                    : VirtualDubMod 1.5.10.2 (build 2542/release)
Правообладатель                          : http://hqclub.net/
Примечание                               : 08.09.12

Видео
Идентификатор                            : 0
Формат                                   : MPEG-4 Visual
Профиль формата                          : Advanced Simple@L5
Параметр BVOP формата                    : 1
Параметр QPel формата                    : Нет
Параметр GMC формата                     : Без точки перехода
Параметр матрицы формата                 : Выборочная
Идентификатор кодека                     : XVID
Идентификатор кодека/Подсказка           : XviD
Продолжительность                        : 1 ч. 45 м.
Битрейт                                  : 2038 Кбит/сек
Ширина                                   : 704 пикселя
Высота                                   : 384 пикселя
Соотношение сторон                       : 1,85:1
Частота кадров                           : 23,976 кадра/сек
Цветовое пространство                    : YUV
Субдискретизация насыщенности            : 4:2:0
Битовая глубина                          : 8 бит
Тип развёртки                            : Прогрессивная
Метод сжатия                             : С потерями
Бит/(Пиксели*Кадры)                      : 0.314
Размер потока                            : 1,51 Гбайт (69%)
Библиотека кодирования                   : XviD 65

Аудио #1
Идентификатор                            : 1
Формат                                   : AC-3
Формат/Информация                        : Audio Coding 3
Расширение режима                        : CM (complete main)
Параметр Endianness формата              : Big
Идентификатор кодека                     : 2000
Продолжительность                        : 1 ч. 45 м.
Вид битрейта                             : Постоянный
Битрейт                                  : 448 Кбит/сек
Каналы                                   : 6 каналов
Расположение каналов                     : Front: L C R, Side: L R, LFE
Частота                                  : 48,0 КГц
Битовая глубина                          : 16 бит
Метод сжатия                             : С потерями
Размер потока                            : 339 Мбайт (15%)
Выравнивание                             : Разделение по промежуткам
Продолжительность промежутка             : 42  мс. (1,00 видеокадр)
Время предзагрузки промежутка            : 500  мс.

Аудио #2
Идентификатор                            : 2
Формат                                   : AC-3
Формат/Информация                        : Audio Coding 3
Расширение режима                        : CM (complete main)
Параметр Endianness формата              : Big
Идентификатор кодека                     : 2000
Продолжительность                        : 1 ч. 45 м.
Вид битрейта                             : Постоянный
Битрейт                                  : 448 Кбит/сек
Каналы                                   : 6 каналов
Расположение каналов                     : Front: L C R, Side: L R, LFE
Частота                                  : 48,0 КГц
Битовая глубина                          : 16 бит
Метод сжатия                             : С потерями
Размер потока                            : 339 Мбайт (15%)
Выравнивание                             : Разделение по промежуткам
Продолжительность промежутка             : 42  мс. (1,00 видеокадр)
Время предзагрузки промежутка            : 500  мс.
Скачков нет.
Написано:  22 Сен 2012 08:46
Ну тогда заменить HDMI для пробы, если нет возможности то подключить через тюльпаны что шли в компклекте.
__________________
Sharp LC-32X20RU + WDTV Gen2 + WDTV Live (если понравилось 41001352107159 яндекс)

Поделитесь со своими друзьями в соцсетях:

WDTV Forum / Форум про WD TV Live / Опыт эксплуатации / Такая проблема - скачет звук