Неофициальный клуб пользователей HD видео плеера WD TV


»Юзер: »Пароль:   Запомнить? 
Написано:  03 Сен 2012 21:17
Всем привет. Столкнулся с авишкой, которая не только сама, но и в виде mkv не воспроизводится на плеере. Данные вот эти:

Полное имя                               : K:\Кино\Jerusalaem_Сон Гафта. пересказанный Виктюком.avi
Формат                                   : AVI
Формат/Информация                        : Audio Video Interleave
Размер файла                             : 775 Мбайт
Продолжительность                        : 1 ч. 44 м.
Общий поток                              : 1041 Кбит/сек
Программа кодирования                    : Lavf53.19.0

Видео
Идентификатор                            : 0
Формат                                   : MPEG-4 Visual
Идентификатор кодека                     : MP42
Идентификатор кодека/Информация          : Microsoft MPEG-4 v2 (pre-standard)
Идентификатор кодека/Подсказка           : Microsoft
Продолжительность                        : 1 ч. 44 м.
Битрейт                                  : 900 Кбит/сек
Ширина                                   : 640 пикселей
Высота                                   : 480 пикселей
Соотношение сторон                       : 4:3
Частота кадров                           : 30,000 кадров/сек
Метод сжатия                             : С потерями
Бит/(Пиксели*Кадры)                      : 0.098
Размер потока                            : 670 Мбайт (86%)

Аудио
Идентификатор                            : 1
Формат                                   : MPEG Audio
Версия формата                           : Version 1
Профиль формата                          : Layer 3
Режим                                    : Joint stereo
Расширение режима                        : MS Stereo
Идентификатор кодека                     : 55
Идентификатор кодека/Подсказка           : MP3
Продолжительность                        : 1 ч. 44 м.
Вид битрейта                             : Постоянный
Битрейт                                  : 128 Кбит/сек
Каналы                                   : 2 канала
Частота                                  : 44,1 КГц
Метод сжатия                             : С потерями
Размер потока                            : 95,3 Мбайт (12%)
Выравнивание                             : Соединение по промежуткам
Продолжительность промежутка             : 26  мс. (0,78 видеокадр)
Библиотека кодирования                   : LAME3.98.4


Возможно ли её как-то ещё преобразовать во что-то? VirtualDub eё` тоже не захотел открыть. Заранее спасибо.
__________________
WDTV Gen2, WDTV Live Streaming
Написано:  03 Сен 2012 21:41
Во что-нибудь другое, что заявлено в характеристиках плеера, косячит похоже из-за этого - Идентификатор кодека : MP42 .
__________________
Sharp LC-32X20RU + WDTV Gen2 + WDTV Live (если понравилось 41001352107159 яндекс)

Поделитесь со своими друзьями в соцсетях: