Неофициальный клуб пользователей HD видео плеера WD TV


»Юзер: »Пароль:   Запомнить? 
WDTV Forum / Форум про WD TV Live Hub / Опыт эксплуатации / Песок и иные артефакты изображения
Написано:  27 Июл 2012 07:52
Добрый всем день!
Столкнулся со следующей проблемой: при воспроизведении DVDRip наблюдается песок и на темных сценах, на заднем фоне, какое-то не корректное отображение цветов, пикселизация. Прошивка стоит последняя (пробывал разные). Грешу на кабель HDMI, у меня вот такой http://www.sven.fi/ru/catalog/cables/hdmi_19m_rotate.htm. Кто что может по этому поводу подсказать?
Написано:  27 Июл 2012 08:02
Для начала нужно медиаинфо жанного файлика http://wdhd.ru/faq.php?q_id=21 !?
__________________
Sharp LC-32X20RU + WDTV Gen2 + WDTV Live (если понравилось 41001352107159 яндекс)
Написано:  27 Июл 2012 08:20
Ок, но смогу выложить только вечером! Дело тут не только в каком-то конкретном файле, встречается на всех! Не только DVDRip, но и BDRip...например на Хозяине морей туман выглядит как снег!
Написано:  27 Июл 2012 08:24
Ну может и кабель, но лучше вначале глянуть медиаинфо .
__________________
Sharp LC-32X20RU + WDTV Gen2 + WDTV Live (если понравилось 41001352107159 яндекс)
Написано:  28 Июл 2012 11:21
Общее
Уникальный идентификатор                 : 176991561773026251905683907069750706914 (0x852755BA3020E45B97EF290E694282E2)
Полное имя                               : \\WDTVLIVEHUB\WDTVLiveHub\Master.and.Commander.The.Far.Side.of.the World.2003.720p.BluRay.2xRus.Eng.mkv
Формат                                   : Matroska
Версия формата                           : Version 2
Размер файла                             : 7,29 Гбайт
Продолжительность                        : 2 ч. 18 м.
Общий поток                              : 7540 Кбит/сек
Название фильма                          : Master and Commander: The Far Side of the World (2003) Release for HDCLUB by -= Andrew Placid =-
Дата кодирования                         : UTC 2010-04-05 21:11:29
Программа кодирования                    : mkvmerge v3.3.0 ('Language') built on Mar 24 2010 14:59:24
Библиотека кодирования                   : libebml v0.8.0 + libmatroska v0.9.0

Видео
Идентификатор                            : 1
Формат                                   : AVC
Формат/Информация                        : Advanced Video Codec
Профиль формата                          : High@L4.1
Параметр CABAC формата                   : Да
Параметр ReFrames формата                : 11 кадров
Идентификатор кодека                     : V_MPEG4/ISO/AVC
Продолжительность                        : 2 ч. 18 м.
Битрейт                                  : 4511 Кбит/сек
Ширина                                   : 1280 пикселей
Высота                                   : 536 пикселей
Соотношение сторон                       : 2,40:1
Частота кадров                           : 23,976 кадра/сек
Цветовое пространство                    : YUV
Субдискретизация насыщенности            : 4:2:0
Битовая глубина                          : 8 бит
Тип развёртки                            : Прогрессивная
Бит/(Пиксели*Кадры)                      : 0.274
Размер потока                            : 4,22 Гбайт (58%)
Заголовок                                : Release for HDCLUB by -= Andrew Placid =-
Библиотека кодирования                   : x264 core 92 r1510 33d382a
Настройки программы                      : cabac=1 / ref=11 / deblock=1:-3:-3 / analyse=0x3:0x113 / me=umh / subme=10 / psy=1 / psy_rd=1.10:0.05 / mixed_ref=1 / me_range=32 / chroma_me=1 / trellis=2 / 8x8dct=1 / cqm=0 / deadzone=21,11 / fast_pskip=0 / chroma_qp_offset=-3 / threads=6 / sliced_threads=0 / nr=0 / decimate=0 / interlaced=0 / constrained_intra=0 / bframes=11 / b_pyramid=2 / b_adapt=2 / b_bias=0 / direct=3 / wpredb=1 / wpredp=2 / keyint=250 / keyint_min=25 / scenecut=40 / intra_refresh=0 / rc=2pass / mbtree=0 / bitrate=4511 / ratetol=1.0 / qcomp=0.60 / qpmin=10 / qpmax=51 / qpstep=4 / cplxblur=20.0 / qblur=0.5 / ip_ratio=1.40 / pb_ratio=1.30 / aq=1:0.60
Язык                                     : English
Default                                  : Нет
Forced                                   : Нет

Аудио #1
Идентификатор                            : 2
Формат                                   : DTS
Формат/Информация                        : Digital Theater Systems
Идентификатор кодека                     : A_DTS
Продолжительность                        : 2 ч. 18 м.
Вид битрейта                             : Постоянный
Битрейт                                  : 755 Кбит/сек
Каналы                                   : 6 каналов
Расположение каналов                     : Front: L C R, Side: L R, LFE
Частота                                  : 48,0 КГц
Битовая глубина                          : 24 бит
Метод сжатия                             : С потерями
Размер потока                            : 747 Мбайт (10%)
Заголовок                                : DTS 5.1ch 754 kbps [Дубляж]
Язык                                     : Russian
Default                                  : Да
Forced                                   : Нет

Вот для примера!
Написано:  28 Июл 2012 16:25
На этом нормально все,а вначале говорилось про двд-рип(вот в нем иногда могут быть и програмные косяки). Значит проверяйте кабель.
__________________
Sharp LC-32X20RU + WDTV Gen2 + WDTV Live (если понравилось 41001352107159 яндекс)

Поделитесь со своими друзьями в соцсетях:

WDTV Forum / Форум про WD TV Live Hub / Опыт эксплуатации / Песок и иные артефакты изображения