Неофициальный клуб пользователей HD видео плеера WD TV


»Юзер: »Пароль:   Запомнить? 
WDTV Forum / Форум про WD TV Live / Опыт эксплуатации / Невозможно воспроизвести выбранный файл
Написано:  11 Июл 2012 20:24
Проблема такая. WD TV Live. Обновил до версии. 1.06.15_V. И теперь фильмы с внешнего диска проигрывает только те что на нем были раньше. Если записываю новые, то проигрывать не хочет. Пишет "Невозможно воспроизвести выбранный файл" Прошивку пробовал откатить назад. То же самое...
В чем может быть проблема?
Написано:  11 Июл 2012 20:27
Изучаем http://wdhd.ru/board/index.php?a=vtopic&t=1246 .
__________________
Sharp LC-32X20RU + WDTV Gen2 + WDTV Live (если понравилось 41001352107159 яндекс)
Написано:  11 Июл 2012 20:56
и? записываю файл на другую флешку - все ок! а на винчестере читает, только то что было на нем раньше
Написано:  11 Июл 2012 21:05
Я тоже могу написать и . Смотрим по той теме что предоставлен минимум инфы, поэтому вначале изучаем ту тему ! Пока только 1 предположение, что файл назван только по русски, что нужно сделать написано опять же в той теме.
__________________
Sharp LC-32X20RU + WDTV Gen2 + WDTV Live (если понравилось 41001352107159 яндекс)
Написано:  11 Июл 2012 21:26
я читал тему. с названием все ок. с файлом тоже если б были траблы, то он не читался и на флешке тоже, логично?
Написано:  11 Июл 2012 21:36
Дык вы только сейчас это написали . Тогда на жестком удаляем папочку .wdtv и проверяем на ошибки жесткий.
__________________
Sharp LC-32X20RU + WDTV Gen2 + WDTV Live (если понравилось 41001352107159 яндекс)
Написано:  11 Июл 2012 21:37   Отредактировано: alukard
соответствие расширению тоже проверил. все ок
нет у меня такой...или она скрытая? у меня Mac OS
Написано:  11 Июл 2012 21:47
Угу скрытая ,незнаю есть ли возможность на маке ее увидеть(данной системой непользовался).
__________________
Sharp LC-32X20RU + WDTV Gen2 + WDTV Live (если понравилось 41001352107159 яндекс)
Написано:  11 Июл 2012 22:32   Отредактировано: alukard
удалил...та же фигня...
заметил сейчас что не показывает размер этого файла. пишет - Unknow
Написано:  12 Июл 2012 09:01
Осталось еще проверить жесткий на ошибки, так как 1.06.15_V может портить файловую систему.
__________________
Sharp LC-32X20RU + WDTV Gen2 + WDTV Live (если понравилось 41001352107159 яндекс)
Написано:  12 Июл 2012 11:43
вот гадство)) спс. проверю сегодня
Написано:  26 Авг 2012 18:20
подскажите новичку-почему иптв не воспроизводится видео онлайн нет звука прошивка 1.05.04_V_WDLXTV.COM_WDLXTV_LIVE-0.5.1.1 установил
на wd tv live помогите а то голова кругом идет
Написано:  30 Авг 2012 16:04
Друзья, ВДшка не хочет вопроизводить файл MOV, файл большой 246гигов, вот его данные:

General
Complete name                            : D:\Video\Bergensbanen.1080i50.ProRes422.Nrk.mov
Format                                   : MPEG-4
Format profile                           : QuickTime
Codec ID                                 : qt 
File size                                : 246 GiB
Duration                                 : 7h 14mn
Overall bit rate mode                    : Variable
Overall bit rate                         : 81.1 Mbps
Encoded date                             : UTC 2010-01-13 08:49:52
Tagged date                              : UTC 2010-01-14 19:56:26
Writing library                          : Apple QuickTime
Media/UUID                               : 3135BA62-0044-4A54-BFC2-C6A5262C7C83

Video
ID                                       : 1
Format                                   : ProRes
Format profile                           : LT
Codec ID                                 : apcs
Duration                                 : 7h 14mn
Bit rate mode                            : Variable
Bit rate                                 : 79.5 Mbps
Width                                    : 1 888 pixels
Original width                           : 1 920 pixels
Height                                   : 1 062 pixels
Original height                          : 1 080 pixels
Display aspect ratio                     : 16:9
Frame rate mode                          : Constant
Frame rate                               : 25.000 fps
Color space                              : YUV
Chroma subsampling                       : 4:2:2
Scan type                                : Interlaced
Scan order                               : Top Field First
Bits/(Pixel*Frame)                       : 1.586
Stream size                              : 241 GiB (98%)
Language                                 : English
Encoded date                             : UTC 2010-01-13 08:49:52
Tagged date                              : UTC 2010-01-14 19:56:24
Color primaries                          : BT.709-2, SMPTE 274M, SMPTE 296M
Transfer characteristics                 : BT.709-2, SMPTE 170M, SMPTE 274M, SMPTE 293M, SMPTE 296M
Matrix coefficients                      : BT.709-2, SMPTE 274M, SMPTE 296M

Audio
ID                                       : 2
Format                                   : PCM
Format settings, Endianness              : Little
Format settings, Sign                    : Signed
Codec ID                                 : sowt
Duration                                 : 7h 14mn
Bit rate mode                            : Constant
Bit rate                                 : 1 536 Kbps
Channel(s)                               : 2 channels
Sampling rate                            : 48.0 KHz
Bit depth                                : 16 bits
Stream size                              : 4.66 GiB (2%)
Language                                 : English
Encoded date                             : UTC 2010-01-13 08:49:52
Tagged date                              : UTC 2010-01-14 19:56:24

можно что-то сделать или она такое не тянет по умолчанию и не дергаться?

ЗЫ модель WDBAAP0000NBK-01 WD TV Live
Написано:  30 Авг 2012 16:14
Дас нехилый файлик, как минимум напряг процу обеспечен. А разбитый на части есть, пока только подозрения на объем файла.
__________________
Sharp LC-32X20RU + WDTV Gen2 + WDTV Live (если понравилось 41001352107159 яндекс)
Написано:  30 Авг 2012 17:49
разбитого нету к сожалению =) ну да ладно =)

Поделитесь со своими друзьями в соцсетях:

WDTV Forum / Форум про WD TV Live / Опыт эксплуатации / Невозможно воспроизвести выбранный файл