Неофициальный клуб пользователей HD видео плеера WD TV


»Юзер: »Пароль:   Запомнить? 
WDTV Forum / Форум про WD TV Live Streaming / Опыт эксплуатации / Проблема с воспроизводством файла
Написано:  01 Май 2012 22:11
Есть wdtv live streaming. Напрямую подключен жесткий диск usb 3.0 (сразу отмечу, что после подключения с переднего usb проблема осталась). Почти все фильмы зависают при проигрывании. Отключено формирование медиатеки. Не пойму в чем проблема. Прошивка официальная обновленная 1.07.18. Использовал жесткий резет, отключение от сети и т.д. Ничего непомоло.
Может кто сталкивался с проблемой.

Инфо по видеофайлу
General
Complete name                  : E:\Downloads\Sherlok.Holms.Igra.Tenei.2011.RUS.BDRip.XviD.AC3.-HQ-ViDEO.avi
Format                         : AVI
Format/Info                    : Audio Video Interleave
Format profile                 : OpenDML
File size                      : 2.18 GiB
Duration                       : 2h 8mn
Overall bit rate               : 2 428 Kbps
Movie name                     : Sherlock Holmes: A Game of Shadows (2011)
Director                       : BDRip
Genre                          : Action/Crime/Thriller
Writing application            : VirtualDubModRus 1.5.10.2 (build 2542/release)
Writing library                : VirtualDubMod build 2542/release
Original source form/Name      : Movie
Copyright                      : HQ-ViDEO
Comment                        : BDRip

Video
ID                             : 0
Format                         : MPEG-4 Visual
Format profile                 : Advanced Simple@L5
Format settings, BVOP          : 1
Format settings, QPel          : No
Format settings, GMC           : No warppoints
Format settings, Matrix        : Custom
Codec ID                       : XVID
Codec ID/Hint                  : XviD
Duration                       : 2h 8mn
Bit rate                       : 1 968 Kbps
Width                          : 720 pixels
Height                         : 304 pixels
Display aspect ratio           : 2.35:1
Frame rate                     : 23.976 fps
Color space                    : YUV
Chroma subsampling             : 4:2:0
Bit depth                      : 8 bits
Scan type                      : Progressive
Compression mode               : Lossy
Bits/(Pixel*Frame)             : 0.375
Stream size                    : 1.77 GiB (81%)
Writing library                : XviD 64

Audio
ID                             : 1
Format                         : AC-3
Format/Info                    : Audio Coding 3
Mode extension                 : CM (complete main)
Codec ID                       : 2000
Duration                       : 2h 8mn
Bit rate mode                  : Constant
Bit rate                       : 448 Kbps
Channel(s)                     : 6 channels
Channel positions              : Front: L C R, Side: L R, LFE
Sampling rate                  : 48.0 KHz
Bit depth                      : 16 bits
Compression mode               : Lossy
Stream size                    : 413 MiB (18%)
Alignment                      : Split accross interleaves
Interleave, duration           : 42 ms (1.00 video frame)
Interleave, preload duration   : 500 ms
Написано:  03 Май 2012 11:00
Цитата:
Почти все фильмы зависают при проигрывании.

даже AVC? Пробовали связку mkv + avc?
Написано:  04 Май 2012 08:03
У человека проблема с жестким,он скопировал сюда свой вопрос недождавшись всех ответов на другом форуме.
__________________
Sharp LC-32X20RU + WDTV Gen2 + WDTV Live (если понравилось 41001352107159 яндекс)
Написано:  04 Июл 2012 11:55
Чтобы не создавать новой темы, напишу здесь. Итак, имеется BDRip файл с фильмом в контейнере mkv. Вот инфо файла:
Тип релиза: BDRip (DON)
Контейнер: MKV
Видео: H264 / 16000 kbps / 1920x800 / 23.976 fps / High Profile 4.1
Аудио 1: Русский дубляж / DTS / 5.1 / 48 kHz / 1536 kbps
Аудио 2: Русский многоголосый / DTS / 5.1 / 48 kHz / 1536 kbps
Аудио 3: Русский одноголосый / DTS / 5.1 / 48 kHz / 1536 kbps (спасибо Instigator-NN)
Аудио 4: Английский / DTS / 5.1 / 48 kHz / 1536 kbps
Cубтитры 1: Русские srt (спасибо m0j0)
Cубтитры 2: Aнглийские srt
Чаптеры: есть

Этот файл лежит на внешнем харде (Seagate Freeagent Go usb 2.0 на 500Гб) и на флэшке Трансценд usb 2.0 на 32 Гб. Так вот, с флэшки ведро воспроизводит вышеуказанный файл, а вот с жесткого диска - нет. Пишет, что не поддерживается формат. Вот это глюк!!! Подскажите, в чем м.б. дело?

PS: И диск и флэшку пробовал вставлять в оба USB-входа - результат идентичный (
Написано:  04 Июл 2012 19:17
Для начала нужно полное медиаинфо с жесткого, этого файла ?!
__________________
Sharp LC-32X20RU + WDTV Gen2 + WDTV Live (если понравилось 41001352107159 яндекс)
Написано:  04 Июл 2012 23:59
Какой программой в линуксе (Убунту) лучше посмотреть полное медиаинфо файла? На что обращать внимание?
Написано:  05 Июл 2012 08:48
http://mediainfo.sourceforge.net/ru только вид выбрать более полный, наподобие такого - http://wdhd.ru/movie.php?id=1323870149. Проверить соответсвие контейнеру, но с флешки раз запускается то должно быть все правильно,а с жесткого мне надо глянуть в каких папках лежит.
__________________
Sharp LC-32X20RU + WDTV Gen2 + WDTV Live (если понравилось 41001352107159 яндекс)
Написано:  06 Июл 2012 22:24
Спасибо за помощь! С файлом разобрался - мой косяк был, неправильно копировал. Сейчас плеер играет файл с винта нормально.
Написано:  12 Янв 2013 16:31
Тоже чтобы не создавать новой темы прошу помочь, не запускается файл и ему подобные. Прошу помочь. Данные из MediaInfo;
Формат                                   : Matroska
Версия формата                           : Version 2
Размер файла                             : 19,0 Гбайт
Продолжительность                        : 2 ч. 16 м.
Режим общего битрейта                    : Переменный
Общий поток                              : 19,9 Мбит/сек
Дата кодирования                         : UTC 2010-06-02 14:15:59
Программа кодирования                    : mkvmerge v3.3.0 ('Language') built on Mar 24 2010 14:59:24
Библиотека кодирования                   : libebml v0.8.0 + libmatroska v0.9.0

Видео
Идентификатор                            : 1
Формат                                   : AVC
Формат/Информация                        : Advanced Video Codec
Профиль формата                          : Main@L4.0
Параметр CABAC формата                   : Да
Параметр ReFrames формата                : 2 кадра
Режим смешивания                         : Container profile=Unknown@0.0
Идентификатор кодека                     : V_MPEG4/ISO/AVC
Продолжительность                        : 2 ч. 16 м.
Вид битрейта                             : Переменный
Битрейт                                  : 16,7 Мбит/сек
Максимальный битрейт                     : 40,0 Мбит/сек
Ширина                                   : 1920 пикселей
Высота                                   : 1080 пикселей
Соотношение сторон                       : 16:9
Режим частоты кадров                     : Постоянный
Частота кадров                           : 23,976 кадра/сек
Цветовое пространство                    : YUV
Субдискретизация насыщенности            : 4:2:0
Битовая глубина                          : 8 бит
Тип развёртки                            : Прогрессивная
Бит/(Пиксели*Кадры)                      : 0.336
Размер потока                            : 15,9 Гбайт (84%)
Язык                                     : English
Default                                  : Нет
Forced                                   : Нет
Основные цвета                           : BT.709
Характеристики трансфера                 : BT.709
Коэффициенты матрицы                     : BT.709
Написано:  12 Янв 2013 16:52
А еще первую строчку - Complete name                  : E:\Downloads\Sherlok.Holms.Igra.Tenei.2011.RUS.BDRip.XviD.AC3.-HQ-ViDEO.avi
Format                         : AVI
как здесь ?
__________________
Sharp LC-32X20RU + WDTV Gen2 + WDTV Live (если понравилось 41001352107159 яндекс)
Написано:  12 Янв 2013 17:06
Полное имя                               : \\STORA\FamilyLibrary\FamilyVideos\Films\Star Wars Episode 1.mkv
Формат                                   : Matroska
Написано:  12 Янв 2013 17:31   Отредактировано: alukard
Хм все нормально должен запускаться, смотрю похоже с Наса запускается. Может через медиасервер пытаетесь проиграть !? Если нет, то описать откуда запускается ?
__________________
Sharp LC-32X20RU + WDTV Gen2 + WDTV Live (если понравилось 41001352107159 яндекс)
Написано:  13 Янв 2013 00:32
Запускается через UPnP сервер с NAS, через внешний HDD все отлично работает, в чем может быть проблема?
Написано:  13 Янв 2013 09:22
Ограничения UPnP сервера, есть же самба или Nfs(предпочтительней). Настривайте их на Насе .
__________________
Sharp LC-32X20RU + WDTV Gen2 + WDTV Live (если понравилось 41001352107159 яндекс)
Написано:  13 Янв 2013 10:39
Спасибо! Буду пробовать, NAS только UPnP поддерживает(

Поделитесь со своими друзьями в соцсетях:

WDTV Forum / Форум про WD TV Live Streaming / Опыт эксплуатации / Проблема с воспроизводством файла