Неофициальный клуб пользователей HD видео плеера WD TV


»Юзер: »Пароль:   Запомнить? 
WDTV Forum / Форум про WD TV Gen1 / Опыт эксплуатации / не могу установить новую прошивку GEN 1
Написано:  24 Апр 2012 09:47
прочитал как установить новую прошивку,скачал,сделал все как написано,отформатировал флэшку ,распаковал в нее два файла,отключил wd,вставил флэшку ,включил жду ничего не произошло просто включился плеер меню помогите
Написано:  24 Апр 2012 10:16
Пишем название прошивки какую пытаетесь установить,также непомешает проверить http://wdhd.ru/faq.php?q_id=19 .
__________________
Sharp LC-32X20RU + WDTV Gen2 + WDTV Live (если понравилось 41001352107159 яндекс)
Написано:  24 Апр 2012 12:52
плеер WD TV WPAVP00BE сейчас прошивка 1,02,07 хочу установить скачал по ссылке офиц сайта
Написано:  24 Апр 2012 12:55
в общем то он перестал читать mkv на форуме много прочитал об этом но панацеи так и не увидел вот хотел прошивку для начала поменять не могу установить
Написано:  24 Апр 2012 13:13
Цитата:
он перестал читать mkv

так не бывает!
кидай mediainfo (ссылка в faq'е есть) на файлы, которые не читаются.. если дело в компрессии заголовков mkv, то прошивками там ничего не решится (для gen1 уже сто лет не было новых прошивок, и эту проблему не решили).. можно перепаковать mkv более старыми версиями MKVmerge (см. опять же faq, раздел про MKVtoolnix)
__________________
Где купить WD TV: Live Streaming
Написано:  24 Апр 2012 13:41
да для меня дремучий лес может  поподробней поможете а то не смотрю плеер уже давно
а на компе  этот фильм идет
это надо каждый фильм в mkv перепаковывать?
Написано:  24 Апр 2012 14:43
Общее
Уникальный идентификатор                 : 244393271282912376606114325624088067715 (0xB7DC6E936D35BA3692D56CAABE367E83)
Полное имя                               : C:\Users\user\Desktop\Шерлок Холмс - Игра теней  (Sherlock Holmes - A Game of Shadows) [HD] Чистый звук\Шерлок Холмс - Игра теней  (Sherlock Holmes - A Game of Shadows) [HD] Чистый звук.mkv
Формат                                   : Matroska
Версия формата                           : Version 2
Размер файла                             : 5,87 Гбайт
Продолжительность                        : 2 ч. 8 м.
Общий поток                              : 6527 Кбит/сек
Дата кодирования                         : UTC 2012-04-18 16:00:52
Программа кодирования                    : mkvmerge v4.4.0 ('Die Wiederkehr') сборка от Dec 25 2010 23:32:50
Библиотека кодирования                   : libebml v1.0.0 + libmatroska v1.0.0

Видео
Идентификатор                            : 1
Формат                                   : AVC
Формат/Информация                        : Advanced Video Codec
Профиль формата                          : High@L4.1
Параметр CABAC формата                   : Да
Параметр ReFrames формата                : 5 кадров
Режим смешивания                         : Header stripping
Идентификатор кодека                     : V_MPEG4/ISO/AVC
Продолжительность                        : 2 ч. 8 м.
Битрейт                                  : 5950 Кбит/сек
Ширина                                   : 1920 пикселей
Высота                                   : 800 пикселей
Соотношение сторон                       : 2,40:1
Частота кадров                           : 23,976 кадра/сек
Цветовое пространство                    : YUV
Субдискретизация насыщенности            : 4:2:0
Битовая глубина                          : 8 бит
Тип развёртки                            : Прогрессивная
Бит/(Пиксели*Кадры)                      : 0.162
Размер потока                            : 5,35 Гбайт (91%)
Библиотека кодирования                   : x264 core 122 r2184 5c85e0a
Настройки программы                      : cabac=1 / ref=5 / deblock=1:-1:-1 / analyse=0x3:0x133 / me=umh / subme=7 / psy=1 / psy_rd=1.00:0.15 / mixed_ref=1 / me_range=16 / chroma_me=1 / trellis=1 / 8x8dct=1 / cqm=0 / deadzone=21,11 / fast_pskip=0 / chroma_qp_offset=-3 / threads=12 / sliced_threads=0 / nr=0 / decimate=1 / interlaced=0 / bluray_compat=0 / constrained_intra=0 / bframes=3 / b_pyramid=2 / b_adapt=1 / b_bias=0 / direct=3 / weightb=1 / open_gop=0 / weightp=2 / keyint=240 / keyint_min=23 / scenecut=40 / intra_refresh=0 / rc_lookahead=40 / rc=crf / mbtree=1 / crf=20.0 / qcomp=0.60 / qpmin=10 / qpmax=69 / qpstep=4 / ip_ratio=1.40 / aq=1:1.00
Язык                                     : English
Default                                  : Да
Forced                                   : Да

Аудио
Идентификатор                            : 2
Формат                                   : AC-3
Формат/Информация                        : Audio Coding 3
Расширение режима                        : CM (complete main)
Параметр Endianness формата              : Big
Режим смешивания                         : Header stripping
Идентификатор кодека                     : A_AC3
Продолжительность                        : 2 ч. 8 м.
Вид битрейта                             : Постоянный
Битрейт                                  : 448 Кбит/сек
Каналы                                   : 6 каналов
Расположение каналов                     : Front: L C R, Side: L R, LFE
Частота                                  : 48,0 КГц
Битовая глубина                          : 16 бит
Метод сжатия                             : С потерями
Размер потока                            : 413 Мбайт (7%)
Default                                  : Да
Forced                                   : Нет

вот инфо фильма может кто знает почему не читат
Написано:  24 Апр 2012 18:06   Отредактировано: alukard
А в фак заглянуть http://wdhd.ru/faq.php?q_id=13 ,перепрошивка непоможет(про саму проблему более подробнее уже выше написали)! И опять повторюсь,какую прошивку скачиваете ?!
__________________
Sharp LC-32X20RU + WDTV Gen2 + WDTV Live (если понравилось 41001352107159 яндекс)
Написано:  25 Апр 2012 10:44
пошивку скачал по ссылке с официального сайта для gen 1
не знаю номера
Написано:  25 Апр 2012 19:19
Дас вы так и к врачу чтоли ходите(доктор у меня что-то где-то болит),версия прошивки в названии самого архива ! И еще раз какая версия ?
__________________
Sharp LC-32X20RU + WDTV Gen2 + WDTV Live (если понравилось 41001352107159 яндекс)

Поделитесь со своими друзьями в соцсетях:

WDTV Forum / Форум про WD TV Gen1 / Опыт эксплуатации / не могу установить новую прошивку GEN 1