Неофициальный клуб пользователей HD видео плеера WD TV


»Юзер: »Пароль:   Запомнить? 
WDTV Forum / Форум про WD TV Gen2 / Опыт эксплуатации / помогите не идет фильм
Написано:  22 Апр 2012 14:22
из 5 не запустилса не один резет не помогает
есть ли лекарство вед на компе удут в лет
Общее
Уникальный идентификатор         : 222860694353844133748425940300140608526 (0xA7A9689160E5DDE1B6B18D1832B77C0E)
Полное имя                       : C:\Downloads\Время =In Time= (BDRip 1080p 2011)[Rus D].mkv
Формат                           : Matroska
Размер файла                     : 9,90 Гбайт
Продолжительность                : 1 ч. 49 м.
Общий поток                      : 13,0 Мбит/сек
Название фильма                  : Fringe [Season 3] (2010) - Release for HDCLUB
Дата кодирования                 : UTC 2012-01-19 22:19:03
Программа кодирования            : mkvmerge v5.2.0 ('I can't explain' built on Dec 18 2011 18:12:03
Библиотека кодирования           : libebml v1.2.3 + libmatroska v1.3.0

Видео
Идентификатор                    : 1
Формат                           : AVC
Формат/Информация                : Advanced Video Codec
Профиль формата                  : High@L4.1
Параметр CABAC формата           : Да
Параметр ReFrames формата        : 5 кадры
Режим смешивания                 : Header stripping
Идентификатор кодека             : V_MPEG4/ISO/AVC
Продолжительность                : 1 ч. 49 м.
Битрейт                          : 12,6 Мбит/сек
Ширина                           : 1920 пикс.
Высота                           : 816 пикс.
Соотношение сторон               : 2,35:1
Частота кадров                   : 23,976 кадр/сек
Цветовое пространство            : YUV
Подвыборка цветности             : 4:2:0
Битовая глубина                  : 8 бит
Тип развёртки                    : Прогрессивная
Бит/(Пиксели*Кадры)              : 0.335
Размер потока                    : 9,41 Гбайт (95%)
Библиотека кодирования           : x264 core 120 r2145 748fe16
Настройки программы              : cabac=1 / ref=5 / deblock=1:-3:-3 / analyse=0x3:0x133 / me=umh / subme=10 / psy=1 / psy_rd=0.90:0.00 / mixed_ref=1 / me_range=64 / chroma_me=1 / trellis=2 / 8x8dct=1 / cqm=0 / deadzone=21,11 / fast_pskip=0 / chroma_qp_offset=-2 / threads=12 / sliced_threads=0 / nr=0 / decimate=0 / interlaced=0 / bluray_compat=0 / constrained_intra=0 / bframes=8 / b_pyramid=2 / b_adapt=2 / b_bias=0 / direct=3 / weightb=1 / open_gop=0 / weightp=2 / keyint=240 / keyint_min=24 / scenecut=40 / intra_refresh=0 / rc=2pass / mbtree=0 / bitrate=12588 / ratetol=1.0 / qcomp=0.75 / qpmin=0 / qpmax=69 / qpstep=4 / cplxblur=20.0 / qblur=0.5 / ip_ratio=1.40 / pb_ratio=1.25 / aq=1:1.10
Язык                             : English

Аудио
Идентификатор                    : 2
Формат                           : AC-3
Формат/Информация                : Audio Coding 3
Расширение режима                : CM (complete main)
Режим смешивания                 : Header stripping
Идентификатор кодека             : A_AC3
Продолжительность                : 1 ч. 49 м.
Вид битрейта                     : Постоянный
Битрейт                          : 384 Кбит/сек
Канал(ы)                         : 6 канала(ов)
Расположение каналов             : Front: L C R, Side: L R, LFE
Частота                          : 48,0 КГц
Битовая глубина                  : 16 бит
Метод сжатия                     : С потерями
Размер потока                    : 300 Мбайт (3%)
Заголовок                        : DUB R5
Язык                             : Russian

Текст
Идентификатор                    : 3
Формат                           : UTF-8
Идентификатор кодека             : S_TEXT/UTF8
Идентификатор кодека/Информация  : UTF-8 Plain Text
Язык                             : Russian

Общее
Уникальный идентификатор         : 226584176747080143986122437954245295528 (0xAA76866C70793E3EB91EA61D0C58FDA
Полное имя                       : C:\Downloads\Встреча со злом =Meeting Evil= (BDRip 720p 2012)[Rus L2VO].mkv
Формат                           : Matroska
Размер файла                     : 3,01 Гбайт
Продолжительность                : 1 ч. 29 м.
Общий поток                      : 4833 Кбит/сек
Название фильма                  : Kontrabanda.2012.D.BDRip.1080p.ELEKTRI4KA
Дата кодирования                 : UTC 2012-04-15 21:27:20
Программа кодирования            : mkvmerge v5.2.0 ('I can't explain' built on Dec 18 2011 18:12:03
Библиотека кодирования           : libebml v1.2.3 + libmatroska v1.3.0

Видео
Идентификатор                    : 1
Формат                           : AVC
Формат/Информация                : Advanced Video Codec
Профиль формата                  : High@L4.1
Параметр CABAC формата           : Да
Параметр ReFrames формата        : 1 кадр
Параметры GOP формата            : N=1
Режим смешивания                 : Header stripping
Идентификатор кодека             : V_MPEG4/ISO/AVC
Продолжительность                : 1 ч. 29 м.
Битрейт                          : 4500 Кбит/сек
Ширина                           : 1280 пикс.
Высота                           : 720 пикс.
Соотношение сторон               : 16:9
Частота кадров                   : 23,976 кадр/сек
Цветовое пространство            : YUV
Подвыборка цветности             : 4:2:0
Битовая глубина                  : 8 бит
Тип развёртки                    : Прогрессивная
Бит/(Пиксели*Кадры)              : 0.204
Размер потока                    : 2,71 Гбайт (90%)
Заголовок                        : Meeting Evil / 2012
Библиотека кодирования           : x264 core 68 r1195bm 5d75a9b
Настройки программы              : cabac=1 / ref=1 / deblock=1:0:0 / analyse=0x3:0x13 / me=umh / subme=7 / psy_rd=0.0:0.0 / mixed_ref=0 / me_range=16 / chroma_me=1 / trellis=1 / 8x8dct=1 / cqm=0 / deadzone=21,11 / chroma_qp_offset=0 / threads=1 / thread_queue=1 / nr=0 / decimate=1 / mbaff=0 / bframes=0 / keyint=250 / keyint_min=25 / scenecut=40 / rc=abr / bitrate=4500 / ratetol=1.0 / qcomp=0.60 / qpmin=10 / qpmax=51 / qpstep=4 / ip_ratio=1.40 / aq=2:1.00
Язык                             : English

Аудио
Идентификатор                    : 2
Формат                           : AC-3
Формат/Информация                : Audio Coding 3
Расширение режима                : CM (complete main)
Режим смешивания                 : Header stripping
Идентификатор кодека             : A_AC3
Продолжительность                : 1 ч. 29 м.
Вид битрейта                     : Постоянный
Битрейт                          : 384 Кбит/сек
Канал(ы)                         : 6 канала(ов)
Расположение каналов             : Front: L C R, Side: L R, LFE
Частота                          : 48,0 КГц
Битовая глубина                  : 16 бит
Метод сжатия                     : С потерями
Размер потока                    : 245 Мбайт (8%)
Заголовок                        : [DVO] АС3, 6 ch, 384 kbps
Язык                             : Russian
Общее
Уникальный идентификатор         : 202542074722105763758162408762930131476 (0x98602F4691E88C598C69A358D0D47214)
Полное имя                       : C:\Downloads\Очень плохая училка =Bad Teacher= (BDRip 1080p 2011)[Rus D][Расширенная версия].mkv
Формат                           : Matroska
Размер файла                     : 10,1 Гбайт
Продолжительность                : 1 ч. 37 м.
Общий поток                      : 14,8 Мбит/сек
Название фильма                  : --SCHUMAHER--
Дата кодирования                 : UTC 2011-10-11 13:29:40
Программа кодирования            : mkvmerge v4.6.0 ('Still Crazy After All These Years' сборка от Mar 10 2011 02:50:32
Библиотека кодирования           : libebml v1.2.0 + libmatroska v1.1.0

Видео
Идентификатор                    : 1
Формат                           : AVC
Формат/Информация                : Advanced Video Codec
Профиль формата                  : High@L4.1
Параметр CABAC формата           : Да
Параметр ReFrames формата        : 4 кадры
Режим смешивания                 : Header stripping
Идентификатор кодека             : V_MPEG4/ISO/AVC
Продолжительность                : 1 ч. 37 м.
Битрейт                          : 14,4 Мбит/сек
Ширина                           : 1920 пикс.
Высота                           : 1040 пикс.
Соотношение сторон               : 16:9
Частота кадров                   : 23,976 кадр/сек
Цветовое пространство            : YUV
Подвыборка цветности             : 4:2:0
Битовая глубина                  : 8 бит
Тип развёртки                    : Прогрессивная
Бит/(Пиксели*Кадры)              : 0.302
Размер потока                    : 9,64 Гбайт (95%)
Библиотека кодирования           : x264 core 116 r2074 2641b9e
Настройки программы              : cabac=1 / ref=4 / deblock=1:-3:-3 / analyse=0x3:0x113 / me=umh / subme=11 / psy=1 / psy_rd=1.05:0.10 / mixed_ref=1 / me_range=48 / chroma_me=1 / trellis=2 / 8x8dct=1 / cqm=2 / deadzone=21,11 / fast_pskip=0 / chroma_qp_offset=-2 / threads=8 / sliced_threads=0 / nr=0 / decimate=1 / interlaced=0 / bluray_compat=0 / constrained_intra=0 / bframes=6 / b_pyramid=2 / b_adapt=2 / b_bias=0 / direct=3 / weightb=1 / open_gop=0 / weightp=2 / keyint=250 / keyint_min=23 / scenecut=40 / intra_refresh=0 / rc_lookahead=50 / rc=2pass / mbtree=1 / bitrate=14435 / ratetol=1.0 / qcomp=0.70 / qpmin=1 / qpmax=63 / qpstep=4 / cplxblur=20.0 / qblur=0.5 / vbv_maxrate=45000 / vbv_bufsize=40000 / nal_hrd=none / ip_ratio=1.40 / aq=2:0.90
Язык                             : English

Аудио
Идентификатор                    : 2
Формат                           : AC-3
Формат/Информация                : Audio Coding 3
Расширение режима                : CM (complete main)
Режим смешивания                 : Header stripping
Идентификатор кодека             : A_AC3
Продолжительность                : 1 ч. 37 м.
Вид битрейта                     : Постоянный
Битрейт                          : 384 Кбит/сек
Канал(ы)                         : 6 канала(ов)
Расположение каналов             : Front: L C R, Side: L R, LFE
Частота                          : 48,0 КГц
Битовая глубина                  : 16 бит
Метод сжатия                     : С потерями
Размер потока                    : 268 Мбайт (3%)
Заголовок                        : Профессиональный дублированный
Язык                             : Russian
Написано:  22 Апр 2012 16:39   Отредактировано: alukard
Эх изучаем про мквмерге http://wdhd.ru/board/index.php?a=vtopic&t=1246 .
__________________
Sharp LC-32X20RU + WDTV Gen2 + WDTV Live (если понравилось 41001352107159 яндекс)

Поделитесь со своими друзьями в соцсетях:

WDTV Forum / Форум про WD TV Gen2 / Опыт эксплуатации / помогите не идет фильм