Неофициальный клуб пользователей HD видео плеера WD TV


»Юзер: »Пароль:   Запомнить? 
Написано:  14 Апр 2012 19:21   Отредактировано: olstrim
Не воспроизводится-почему?На телике Самсунг идет,а на wdlive нет.
General
ID                               : 6 (0x6)
Complete name                    : J:\Целуя девушек\Целуя девушек.ts
Format                           : MPEG-TS
Format/Info                      : Advanced Video Codec
File size                        : 5.68 GiB
Duration                         : 1h 50mn
Overall bit rate                 : 7 346 Kbps

Video
ID                               : 321 (0x141)
Menu ID                          : 1 (0x1)
Format                           : AVC
Format/Info                      : Advanced Video Codec
Format profile                   : Main@L4.0
Format settings, CABAC           : Yes
Format settings, ReFrames        : 4 frames
Codec ID                         : 27
Duration                         : 1h 50mn
Bit rate                         : 6 531 Kbps
Width                            : 1 920 pixels
Height                           : 1 080 pixels
Display aspect ratio             : 16:9
Frame rate                       : 25.000 fps
Color space                      : YUV
Chroma subsampling               : 4:2:0
Bit depth                        : 8 bits
Scan type                        : Interlaced
Scan order                       : Top Field First
Bits/(Pixel*Frame)               : 0.126
Stream size                      : 5.05 GiB (89%)
Language                         : English
Color primaries                  : BT.709-5, BT.1361, IEC 61966-2-4, SMPTE RP177
Transfer characteristics         : BT.709-5, BT.1361
Matrix coefficients              : BT.709-5, BT.1361, IEC 61966-2-4 709, SMPTE RP177

Audio
ID                               : 401 (0x191)
Menu ID                          : 1 (0x1)
Format                           : AC-3
Format/Info                      : Audio Coding 3
Mode extension                   : CM (complete main)
Codec ID                         : 129
Duration                         : 1h 50mn
Bit rate mode                    : Constant
Bit rate                         : 448 Kbps
Channel(s)                       : 6 channels
Channel positions                : Front: L C R, Side: L R, LFE
Sampling rate                    : 48.0 KHz
Bit depth                        : 16 bits
Compression mode                 : Lossy
Video delay                      : 1ms
Stream size                      : 355 MiB (6%)
Language                         : Russian
Написано:  14 Апр 2012 20:25   Отредактировано: alukard
Вспоминаем про название на русском http://wdhd.ru/board/index.php?a=vtopic&t=1246 .
__________________
Sharp LC-32X20RU + WDTV Gen2 + WDTV Live (если понравилось 41001352107159 яндекс)
Написано:  15 Апр 2012 12:19   Отредактировано: olstrim
Да дело совсем не в русском,если это про название. У меня все фильмы на русском и в расширении .ts идут нормально. Этот же пробовал перегнать заново в тс муксере и в тс и м2тс и вообще на компе фильм пошел квадратами.Выходит встроенный плеер самсунга на порядок лучше лайва,если читает без запинок.
Написано:  15 Апр 2012 12:52
И все таки для лайва переименовать и проверить.
__________________
Sharp LC-32X20RU + WDTV Gen2 + WDTV Live (если понравилось 41001352107159 яндекс)
Написано:  15 Апр 2012 16:15
ок попробую
Написано:  15 Апр 2012 18:42
Ни к чему хорошему переименование не привело,плеер увидел перименованную на английский папку и собственно сам фильм.Включилось воспроизведение,но не более того.Перемотка не работает и постоянно отбрасывает на начало фильма.Похоже кривой рип.Да и сделан он с HD кино.

Поделитесь со своими друзьями в соцсетях: