Неофициальный клуб пользователей HD видео плеера WD TV


»Юзер: »Пароль:   Запомнить? 
WDTV Forum / Форум про WD TV Live Hub / Опыт эксплуатации / Проблема при воспроизведении MTS(m2ts)-файла 1920x1080 50p
Написано:  01 Апр 2012 16:14
1.
После покупки стояла версия ПО 2.03.24 при воспроизведении MTS(m2ts)-файла 1920x1080 50p

MediaInfo:
Format                         : BDAV
Format/Info                    : Blu-ray Video
File size                      : 158 MiB
Duration                       : 49s 850ms
Overall bit rate mode          : Variable
Overall bit rate               : 26.6 Mbps
Maximum Overall bit rate       : 28.0 Mbps

Video
ID                             : 4113 (0x1011)
Menu ID                        : 1 (0x1)
Format                         : AVC
Format/Info                    : Advanced Video Codec
Format profile                 : High@L4.2
Format settings, CABAC         : Yes
Format settings, ReFrames      : 2 frames
Format settings, GOP           : M=1, N=12
Codec ID                       : 27
Duration                       : 49s 920ms
Bit rate mode                  : Variable
Bit rate                       : 25.1 Mbps
Maximum bit rate               : 26.0 Mbps
Width                          : 1 920 pixels
Height                         : 1 080 pixels
Display aspect ratio           : 16:9
Frame rate                     : 50.000 fps
Color space                    : YUV
Chroma subsampling             : 4:2:0
Bit depth                      : 8 bits
Scan type                      : Progressive
Bits/(Pixel*Frame)             : 0.242
Stream size                    : 149 MiB (94%)

Audio
ID                             : 4352 (0x1100)
Menu ID                        : 1 (0x1)
Format                         : AC-3
Format/Info                    : Audio Coding 3
Mode extension                 : CM (complete main)
Codec ID                       : 129
Duration                       : 49s 920ms
Bit rate mode                  : Constant
Bit rate                       : 448 Kbps
Channel(s)                     : 6 channels
Channel positions              : Front: L C R, Side: L R, LFE
Sampling rate                  : 48.0 KHz
Bit depth                      : 16 bits
Compression mode               : Lossy
Stream size                    : 2.67 MiB (2%)

Text
ID                             : 4608 (0x1200)
Menu ID                        : 1 (0x1)
Format                         : PGS
Codec ID                       : 144
Duration                       : 49s 375ms

вначале файла на 2-3 секунде видео тормозилось на долю секунды, а затем дальше было все ОК.

2.
Через сеть плеер предложил обновиться да версии 2.08.13 (хотя уже была версия 3.03.13), поставил версию 2.08.13.
Торможение вначале файла MTS(m2ts)-файла 1920x1080 50p исчезло. Проблем никаких не заметил с любыми файлами.
3.
Решил обновиться да версии 3.03.13, обнаружил, что для MTS(m2ts)-файла 1920x1080 50p через 15-20 секунд после начала звук уходит вперед изображения.
Если нажать Паузу, то видно, что звука нет, а изображение еще секунды движется. Если нажать Паузу снова, то синронизация восстановиться вначале,
а затем снова звук уходит вперед. На "легких" битрейтах ниже 26.6 Mbps (например 1920x1080 50i) такого нет.

Если нажать Паузу, а затем Options, то появляется меню, где есть строка Синхронизация движения губ со звуком-ОК-
Задержка Опережение
Шаг <- 100 ms или >+100 ms.
Пробовал регулировать - все равно нет синхронизации.

Кто-нибудь сталкивался с этим ?
Написано:  27 Апр 2012 19:11
И как вы решили Эту проблему?
Хочу взять сей аппарат, да вот узнал на форумах о том, что бывают проблемы с видео MTS и M2TS.
У меня видеокамера Панас SD900, а она классное видео делает в формате 1080р, шо мне и надо...
Написано:  27 Апр 2012 19:23   Отредактировано: alukard
Yrko Читайте название раздела,эта другая модель !
пс а автору откатиться на тот вариант прошивки,где с видео было гут WD ,вначале попробуйте сделать резет плееру кнопочкой снизу,а вот потом уже откатываться.
__________________
Sharp LC-32X20RU + WDTV Gen2 + WDTV Live (если понравилось 41001352107159 яндекс)
Написано:  13 Май 2012 04:19
yurko смотрите
http://community.wdc.com/t5/WD-TV-Live-Hub-Firmware/Problem-with-mts-m2ts-files-1920x1080-50p-AVCHD/td-p/384407

Поделитесь со своими друзьями в соцсетях:

WDTV Forum / Форум про WD TV Live Hub / Опыт эксплуатации / Проблема при воспроизведении MTS(m2ts)-файла 1920x1080 50p