Неофициальный клуб пользователей HD видео плеера WD TV


»Юзер: »Пароль:   Запомнить? 
Написано:  18 Мар 2012 01:16
Общее
Идентификатор                            : 0 (0x0)
Полное имя                               : E:\TNA Impact 3-15-12 1080i TSRip.TS
Формат                                   : MPEG-TS
Размер файла                             : 12,0 Гбайт
Продолжительность                        : 2 ч. 0 м.
Режим общего битрейта                    : Переменный
Общий поток                              : 14,2 Мбит/сек
Максимальный общий битрейт               : 18,0 Мбит/сек

Видео
Идентификатор                            : 4113 (0x1011)
Идентификатор меню                       : 1 (0x1)
Формат                                   : AVC
Формат/Информация                        : Advanced Video Codec
Профиль формата                          : Main@L4.0
Параметр CABAC формата                   : Да
Параметр ReFrames формата                : 4 кадра
Параметр GOP формата                     : M=4, N=32
Идентификатор кодека                     : 27
Продолжительность                        : 2 ч. 0 м.
Вид битрейта                             : Переменный
Битрейт                                  : 13,1 Мбит/сек
Максимальный битрейт                     : 20,0 Мбит/сек
Ширина                                   : 1920 пикселей
Высота                                   : 1080 пикселей
Соотношение сторон                       : 16:9
Частота кадров                           : 29,970 кадров/сек
Цветовое пространство                    : YUV
Субдискретизация насыщенности            : 4:2:0
Битовая глубина                          : 8 бит
Тип развёртки                            : Чересстрочная
Порядок развёртки                        : Верхнее поле первое
Бит/(Пиксели*Кадры)                      : 0.212
Размер потока                            : 11,1 Гбайт (92%)
Основные цвета                           : BT.709-5, BT.1361, IEC 61966-2-4, SMPTE RP177
Характеристики трансфера                 : BT.709-5, BT.1361
Коэффициенты матрицы                     : BT.709-5, BT.1361, IEC 61966-2-4 709, SMPTE RP177

Аудио
Идентификатор                            : 4352 (0x1100)
Идентификатор меню                       : 1 (0x1)
Формат                                   : AC-3
Формат/Информация                        : Audio Coding 3
Расширение режима                        : CM (complete main)
Идентификатор кодека                     : 129
Продолжительность                        : 2 ч. 0 м.
Вид битрейта                             : Постоянный
Битрейт                                  : 384 Кбит/сек
Каналы                                   : 2 канала
Расположение каналов                     : Front: L R
Частота                                  : 48,0 КГц
Битовая глубина                          : 16 бит
Метод сжатия                             : С потерями
Задержка видео                           : -100 мс.
Размер потока                            : 331 Мбайт (3%)

А вообще ужас, единственное, что играет без проблем - Xvid'ы. Xvid-плеер за 4 тысячи - это круто.

Поделитесь со своими друзьями в соцсетях: