Неофициальный клуб пользователей HD видео плеера WD TV


»Юзер: »Пароль:   Запомнить? 
WDTV Forum / Форум про WD TV Gen1 / Опыт эксплуатации / Умирание WD на некоторых фильмах
Написано:  06 Янв 2012 21:50
Пользую сей девайс давненько..В принципе устраивает .. Но у его есть один неприятный баг...(у приятеля с той же моделью!-нет).Некоторые фильмаки-их немного  (как и mkv так и avi)после попытки воспроизведения не открываются вообще-то есть полный Малевич.Но этого мало, после этого если я попытаюсь проиграть небитый фильм (который ранее я уже воспроизводил wd)-то тоже уход в Малевича..Лечится только выключением шнура из сети..после этого "хорошие" фильмаки идут без проблем..Прошива (а их я поменял) наверно все на эту проблему не влияет.Кто то сталкивался с такой же хреновиной? Что можно зделать?
Написано:  06 Янв 2012 22:01   Отредактировано: alukard
Изучаем http://wdhd.ru/board/index.php?a=vtopic&t=1246 все кроме названий,если у вас ген1 то такого бага нет.
__________________
Sharp LC-32X20RU + WDTV Gen2 + WDTV Live (если понравилось 41001352107159 яндекс)
Написано:  06 Янв 2012 22:56
и у меня (как в прочем и у приятеля о котором я упоминал)ген 1(самый первый )
Написано:  06 Янв 2012 23:13
Вот инфа о фильме который убивает wd

Общее
Уникальный идентификатор         : 204187460292480062611726348633729703333 (0x999D130C2D7CAC708D6EEBEFD6F89DA5)
Полное имя                       : G:\HD-фильмы\Блэкторн.mkv
Формат                           : Matroska
Версия формата                   : Version 2
Размер файла                     : 6,22 Гбайт
Продолжительность                : 1 ч. 42 м.
Общий поток                      : 8692 Кбит/сек
Дата кодирования                 : UTC 2011-11-27 06:03:40
Программа кодирования            : mkvmerge v4.2.0 ('No Talking' сборка от Jul 28 2010 18:38:23
Библиотека кодирования           : libebml v1.0.0 + libmatroska v1.0.0

Видео
Идентификатор                    : 1
Формат                           : AVC
Формат/Информация                : Advanced Video Codec
Профиль формата                  : High@L4.1
Параметр CABAC формата           : Да
Параметр ReFrames формата        : 12 кадров
Режим смешивания                 : Header stripping
Идентификатор кодека             : V_MPEG4/ISO/AVC
Продолжительность                : 1 ч. 42 м.
Битрейт                          : 6800 Кбит/сек
Ширина                           : 1280 пикселей
Высота                           : 544 пикселя
Соотношение сторон               : 2,35:1
Частота кадров                   : 24,000 кадра/сек
Цветовое пространство            : YUV
Субдискретизация насыщенности    : 4:2:0
Битовая глубина                  : 8 бит
Тип развёртки                    : Прогрессивная
Бит/(Пиксели*Кадры)              : 0.407
Размер потока                    : 4,74 Гбайт (76%)
Библиотека кодирования           : x264 core 119 r2106 07efeb4
Настройки программы              : cabac=1 / ref=12 / deblock=1:-3:-3 / analyse=0x3:0x133 / me=tesa / subme=10 / psy=1 / psy_rd=1.05:0.05 / mixed_ref=1 / me_range=32 / chroma_me=1 / trellis=2 / 8x8dct=1 / cqm=0 / deadzone=21,11 / fast_pskip=0 / chroma_qp_offset=-3 / threads=12 / sliced_threads=0 / nr=0 / decimate=0 / interlaced=0 / bluray_compat=0 / constrained_intra=0 / bframes=7 / b_pyramid=2 / b_adapt=2 / b_bias=0 / direct=3 / weightb=1 / open_gop=0 / weightp=2 / keyint=250 / keyint_min=24 / scenecut=40 / intra_refresh=0 / rc_lookahead=150 / rc=2pass / mbtree=1 / bitrate=6800 / ratetol=1.0 / qcomp=0.60 / qpmin=0 / qpmax=69 / qpstep=4 / cplxblur=20.0 / qblur=0.5 / ip_ratio=1.40 / aq=1:0.80
Язык                             : English
Default                          : Да
Forced                           : Нет

Аудио #1
Идентификатор                    : 2
Формат                           : AC-3
Формат/Информация                : Audio Coding 3
Расширение режима                : CM (complete main)
Режим смешивания                 : Header stripping
Идентификатор кодека             : A_AC3
Продолжительность                : 1 ч. 42 м.
Вид битрейта                     : Постоянный
Битрейт                          : 384 Кбит/сек
Каналы                           : 6 каналов
Расположение каналов             : Front: L C R, Side: L R, LFE
Частота                          : 48,0 КГц
Битовая глубина                  : 16 бит
Метод сжатия                     : С потерями
Задержка видео                   : 17 с.
Размер потока                    : 281 Мбайт (4%)
Язык                             : Russian
Default                          : Да
Forced                           : Нет

Аудио #2
Идентификатор                    : 3
Формат                           : DTS
Формат/Информация                : Digital Theater Systems
Режим смешивания                 : Header stripping
Идентификатор кодека             : A_DTS
Продолжительность                : 1 ч. 42 м.
Вид битрейта                     : Постоянный
Битрейт                          : 1510 Кбит/сек
Каналы                           : 6 каналов
Расположение каналов             : Front: L C R, Side: L R, LFE
Частота                          : 48,0 КГц
Битовая глубина                  : 24 бит
Метод сжатия                     : С потерями
Задержка видео                   : 11 мс.
Размер потока                    : 1,08 Гбайт (17%)
Язык                             : English
Default                          : Нет
Forced                           : Нет

Текст
Идентификатор                    : 4
Формат                           : UTF-8
Идентификатор кодека             : S_TEXT/UTF8
Идентификатор кодека/Информация  : UTF-8 Plain Text
Язык                             : English
Default                          : Нет
Forced                           : Нет

Меню
00:00:00.000                     : en:00:00:00.000
00:14:00.500                     : en:00:14:00.500
00:25:43.458                     : en:00:25:43.458
00:38:18.250                     : en:00:38:18.250
00:50:42.542                     : en:00:50:42.542
01:03:52.667                     : en:01:03:52.667
01:15:26.958                     : en:01:15:26.958
01:27:51.208                     : en:01:27:51.208
Написано:  06 Янв 2012 23:18
пересборка в более ранних версиях MKVmerge решит проблему (рекомендую 4.0.0)
__________________
Где купить WD TV: Live Streaming
Написано:  06 Янв 2012 23:28
да я уже сам понял:

Обратите внимание, что в последних версиях набора MKV Toolnix (выше 4.0.0) библиотека libmatroska обновилась до версии 1.0. На текущий момент она несовместима с WD TV, если контейнер собирается с помощью MKVtoolnix выше 4.0.0 - возможны проблемы с воспроизведением видео и звука.
Написано:  06 Янв 2012 23:49
Да,сработало.. Обработал убитый фильм mkvmerge версия 2...и фильм пошел..Видимо причина именно в несовместимости библиотеки в последних версия проги..
ВСЕМ СПАСИБО!
Написано:  07 Янв 2012 19:52
PS таким же способом "обработал" еще с 10 фильмов в моей фильмотеке. к-рые ранее не шли..все пашет
Написано:  07 Янв 2012 21:34
гуд
__________________
Где купить WD TV: Live Streaming

Поделитесь со своими друзьями в соцсетях:

WDTV Forum / Форум про WD TV Gen1 / Опыт эксплуатации / Умирание WD на некоторых фильмах