Неофициальный клуб пользователей HD видео плеера WD TV


»Юзер: »Пароль:   Запомнить? 
WDTV Forum / Форум про WD TV Gen2 / Опыт эксплуатации / не воспроизводит ави с GOM кодировщиком.
Написано:  14 Дек 2011 13:38
WD TV (Gen2) HD player не воспроизводит видео файлы

General
Complete name : J:\football\CL. Group B. Inter - CSKA. Rip\2 тайм.avi
Format : AVI
Format/Info : Audio Video Interleave
File size : 708 MiB
Duration : 50mn 57s
Overall bit rate : 1 941 Kbps
Writing application : GOM ENCODER (GAviWriter 1.0)

Video
ID : 0
Format : MPEG-4 Visual
Format profile : Simple@L1
Format settings, BVOP : No
Format settings, QPel : No
Format settings, GMC : No warppoints
Format settings, Matrix : Default (H.263)
Codec ID : XVID
Codec ID/Hint : XviD
Duration : 50mn 57s
Bit rate : 1 800 Kbps
Width : 704 pixels
Height : 400 pixels
Display aspect ratio : 16:9
Frame rate : 25.000 fps
Color space : YUV
Chroma subsampling : 4:2:0
Bit depth : 8 bits
Scan type : Progressive
Compression mode : Lossy
Bits/(Pixel*Frame) : 0.256
Stream size : 656 MiB (93%)
Writing library : Lavc52.110.0

Audio
ID : 1
Format : MPEG Audio
Format version : Version 1
Format profile : Layer 3
Mode : Joint stereo
Mode extension : MS Stereo
Codec ID : 55
Codec ID/Hint : MP3
Duration : 50mn 57s
Bit rate mode : Constant
Bit rate : 128 Kbps
Channel(s) : 2 channels
Sampling rate : 48.0 KHz
Compression mode : Lossy
Stream size : 46.6 MiB (7%)
Alignment : Aligned on interleaves
Interleave, duration : 24 ms (0.60 video frame)
Interleave, preload duration : 24 ms
Writing library : LAME3.97 (beta)

Файлы AVI+XVID+MPEG после VirtualDub показывает нормально.
Чтобы понять КАК конвертировать, надо знать -
что не так, какой параметр не подходит.
Написано:  14 Дек 2011 14:00
а что значит "не воспроизводит", как проявляется это?
что пишет?
__________________
Где купить WD TV: Live Streaming
Написано:  14 Дек 2011 14:20
Звука нет вообще.
Видео:
внизу появл полоска воспроизведения и время, гаснет, через ощутимую паузу строка с аудио кодеком, потом
вариант 1 - показывает первый кадр, потом черный экран, потом через неск минут как будто замедленная перемотка, потом через неск минут вроде бы нормальное видео (без звука)
вариант 2 - показывает первый кадр, потом черный экран и все, больше ничего не могу дождаться.
Написано:  20 Дек 2011 11:06
К сожалению , видимо у меня одного такая проблема.
Задам ещё один вопрос - альтернативная прошивка может помочь? Что-то там ни нашел упоминания о расширении(обновлении) состава кодеков, все о свистках, сети и тд.
Спасибо ответившим.
Написано:  20 Дек 2011 19:20
А что мешает персобрать и это не гом файл а кодировщик такой ?!
__________________
Sharp LC-32X20RU + WDTV Gen2 + WDTV Live (если понравилось 41001352107159 яндекс)
Написано:  21 Дек 2011 14:15
Я пробовал переконвертировать VirtualDub-ом с разными параметрами, результат тот же, отрицательный.
Написано:  20 Янв 2012 15:44
Купил IconBIT xds7gl.
Эти файлы воспроизводит без проблем.

Поделитесь со своими друзьями в соцсетях:

WDTV Forum / Форум про WD TV Gen2 / Опыт эксплуатации / не воспроизводит ави с GOM кодировщиком.