Неофициальный клуб пользователей HD видео плеера WD TV


»Юзер: »Пароль:   Запомнить? 
WDTV Forum / Форум про WD Elements Play / Опыт эксплуатации / не читает VC-1...а жаль...
Написано:  14 Дек 2011 01:09
...VC-1 не читает...менял контейнеры...пусто...а это не есть хорошо...формат распостранённый...и тенденция к дальнейшему...на лицо...
__________________
vladosis
Написано:  14 Дек 2011 13:24
интересно, вообще в мануале есть этот кодек.. а какие контейнеры пробовал? в ts/m2ts пихал?
__________________
Где купить WD TV: Live Streaming
Написано:  14 Дек 2011 19:26
Пример медиаинфо в студию !?
__________________
Sharp LC-32X20RU + WDTV Gen2 + WDTV Live (если понравилось 41001352107159 яндекс)
Написано:  16 Дек 2011 00:03
...простите, забыл про медиаинфо...вообще-то, я полнейший чайник в этих делах..."демуксой" распёхивал в разные контейнеры на нескольких релизах...NET у меня чахлый...как только скачаю материал, отпишусь...если справлюсь с зверьком медиаинфо...данные нужны , я так понимаю, на исходник и перепакованый...
__________________
vladosis
Написано:  16 Дек 2011 01:00
попробуй просто с помощью tsMuxer собрать TS контейнер, в нём точно должен читаться VC-1
__________________
Где купить WD TV: Live Streaming
Написано:  17 Дек 2011 01:18
...попробую, но кажется, такое я уже делал...жду материал...
__________________
vladosis
Написано:  17 Дек 2011 19:52
...не читает VC-1...Хороший, плохой, злой...
Идентификатор                    : 0 (0x0)
Полное имя                       : E:\фильмы\IL.BUONO.IL.BRUTTO.IL.CATTIVO.ITALIAN.BD-Remux\BDMV\STREAM\00000.m2ts
Формат                           : BDAV
Формат/Информация                : Blu-ray Video
Размер файла                     : 43,9 Гбайт
Продолжительность                : 2 ч. 54 м.
Режим общего битрейта            : Переменный
Общий поток                      : 36,0 Мбит/сек
Максимальный общий битрейт       : 48,0 Мбит/сек

Видео
Идентификатор                    : 4113 (0x1011)
Идентификатор меню               : 1 (0x1)
Формат                           : VC-1
Профиль формата                  : AP@L3
Идентификатор кодека             : 234
Продолжительность                : 2 ч. 54 м.
Битрейт                          : 30,4 Мбит/сек
Ширина                           : 1920 пикселей
Высота                           : 1080 пикселей
Соотношение сторон               : 16:9
Частота кадров                   : 23,976 кадра/сек
Субдискретизация насыщенности    : 4:2:0
Битовая глубина                  : 8 бит
Тип развёртки                    : Прогрессивная
Метод сжатия                     : С потерями
Бит/(Пиксели*Кадры)              : 0.612
Размер потока                    : 37,1 Гбайт (84%)

Аудио #1
Идентификатор                    : 4352 (0x1100)
Идентификатор меню               : 1 (0x1)
Формат                           : DTS
Формат/Информация                : Digital Theater Systems
Идентификатор кодека             : 130
Продолжительность                : 2 ч. 54 м.
Вид битрейта                     : Постоянный
Битрейт                          : 1510 Кбит/сек
Каналы                           : 6 каналов
Расположение каналов             : Front: L C R, Side: L R, LFE
Частота                          : 48,0 КГц
Битовая глубина                  : 24 бит
Метод сжатия                     : С потерями
Размер потока                    : 1,84 Гбайт (4%)

Аудио #2
Идентификатор                    : 4353 (0x1101)
Идентификатор меню               : 1 (0x1)
Формат                           : AC-3
Формат/Информация                : Audio Coding 3
Расширение режима                : CM (complete main)
Идентификатор кодека             : 129
Продолжительность                : 2 ч. 54 м.
Вид битрейта                     : Постоянный
Битрейт                          : 448 Кбит/сек
Каналы                           : 6 каналов
Расположение каналов             : Front: L C R, Side: L R, LFE
Частота                          : 48,0 КГц
Битовая глубина                  : 16 бит
Метод сжатия                     : С потерями
Размер потока                    : 559 Мбайт (1%)

Аудио #3
Идентификатор                    : 4354 (0x1102)
Идентификатор меню               : 1 (0x1)
Формат                           : AC-3
Формат/Информация                : Audio Coding 3
Профиль формата                  : Dolby Digital
Расширение режима                : CM (complete main)
Идентификатор кодека             : 129
Продолжительность                : 2 ч. 54 м.
Вид битрейта                     : Постоянный
Битрейт                          : 192 Кбит/сек
Каналы                           : 2 канала
Расположение каналов             : Front: L R
Частота                          : 48,0 КГц
Битовая глубина                  : 16 бит
Метод сжатия                     : С потерями
Размер потока                    : 239 Мбайт (1%)

Аудио #4
Идентификатор                    : 4355 (0x1103)
Идентификатор меню               : 1 (0x1)
Формат                           : DTS
Формат/Информация                : Digital Theater Systems
Идентификатор кодека             : 130
Продолжительность                : 2 ч. 54 м.
Вид битрейта                     : Постоянный
Битрейт                          : 755 Кбит/сек
Каналы                           : 6 каналов
Расположение каналов             : Front: L C R, Side: L R, LFE
Частота                          : 48,0 КГц
Битовая глубина                  : 24 бит
Метод сжатия                     : С потерями
Размер потока                    : 941 Мбайт (2%)

Аудио #5
Идентификатор                    : 4356 (0x1104)
Идентификатор меню               : 1 (0x1)
Формат                           : AC-3
Формат/Информация                : Audio Coding 3
Профиль формата                  : Dolby Digital
Расширение режима                : CM (complete main)
Идентификатор кодека             : 129
Продолжительность                : 2 ч. 54 м.
Вид битрейта                     : Постоянный
Битрейт                          : 192 Кбит/сек
Каналы                           : 2 канала
Расположение каналов             : Front: L R
Частота                          : 48,0 КГц
Битовая глубина                  : 16 бит
Метод сжатия                     : С потерями
Размер потока                    : 239 Мбайт (1%)

Аудио #6
Идентификатор                    : 4357 (0x1105)
Идентификатор меню               : 1 (0x1)
Формат                           : DTS
Формат/Информация                : Digital Theater Systems
Профиль формата                  : MA / Core
Режим смешивания                 : Stream extension
Идентификатор кодека             : 134
Продолжительность                : 2 ч. 54 м.
Вид битрейта                     : Переменный
Битрейт                          : 806 Кбит/сек / 755 Кбит/сек
Каналы                           : 6 каналов
Расположение каналов             : Front: L C R, Side: L R, LFE
Частота                          : 48,0 КГц
Битовая глубина                  : 24 бит
Метод сжатия                     : Без потерь / Lossy

Аудио #7
Идентификатор                    : 4358 (0x1106)
Идентификатор меню               : 1 (0x1)
Формат                           : AC-3
Формат/Информация                : Audio Coding 3
Профиль формата                  : Dolby Digital
Расширение режима                : CM (complete main)
Идентификатор кодека             : 129
Продолжительность                : 2 ч. 54 м.
Вид битрейта                     : Постоянный
Битрейт                          : 256 Кбит/сек
Каналы                           : 2 канала
Расположение каналов             : Front: L R
Частота                          : 48,0 КГц
Битовая глубина                  : 16 бит
Метод сжатия                     : С потерями
Размер потока                    : 319 Мбайт (1%)

...пример
__________________
vladosis
Написано:  17 Дек 2011 20:04
...бросайте в меня камни...в мануале VC-1 нет...а жаль...
__________________
vladosis
Написано:  17 Дек 2011 20:10
Убираем лишний путь и переименовываем папку STREAM в название например фильма и пробуем еще раз.
__________________
Sharp LC-32X20RU + WDTV Gen2 + WDTV Live (если понравилось 41001352107159 яндекс)
Написано:  17 Дек 2011 21:12
Цитата:
в мануале VC-1 нет...а жаль...

да как так? я вчера смотрел - вроде был он там
для mkv - нету
а для ts/m2ts - имелся в наличии
__________________
Где купить WD TV: Live Streaming
Написано:  17 Дек 2011 22:28
....к сожалению...AVC, а не VC-1...я переименовывал файл 0000m2ts и так запускал...сейчас попробую подключить к плазме по USB...может телек сможет прожевать...
__________________
vladosis
Написано:  17 Дек 2011 22:42
...нет, други мои....и плазма выплюнула...сам кодек не удобоварим, а контейнеры тут с боку бантик...да и чёрт с ним...релизов полно...так что расслабляемся и получаем удовольствие...
__________________
vladosis
Написано:  18 Дек 2011 09:54   Отредактировано: alukard
Не файл а папку стрим ! Так на вдшке проверили ?
пс и давайте данное утверждение будет писаться после того как отпишется еще пару человек,а так я пока недоверяю.
__________________
Sharp LC-32X20RU + WDTV Gen2 + WDTV Live (если понравилось 41001352107159 яндекс)

Поделитесь со своими друзьями в соцсетях:

WDTV Forum / Форум про WD Elements Play / Опыт эксплуатации / не читает VC-1...а жаль...