Неофициальный клуб пользователей HD видео плеера WD TV


»Юзер: »Пароль:   Запомнить? 
Написано:  03 Дек 2011 13:29
Подскажите что делать, нет звука в фильмах:

1)   General
Unique ID                        : 225034896981285382061644343428056199135 (0xA94C25089FA31EE7B20927357139AFDF)
Complete name                    : H:\LePacteDesLoups\1.mkv
Format                           : Matroska
Format version                   : Version 2
File size                        : 20.9 GiB
Duration                         : 2h 30mn
Overall bit rate                 : 19.9 Mbps
Encoded date                     : UTC 2011-08-23 23:45:05
Writing application              : mkvmerge v4.4.0 ('Die Wiederkehr') сборка от Oct 31 2010 21:52:48
Writing library                  : libebml v1.0.0 + libmatroska v1.0.0

Video
ID                               : 1
Format                           : VC-1
Format profile                   : AP@L3
Codec ID                         : WVC1
Codec ID/Hint                    : Microsoft
Duration                         : 2h 30mn
Bit rate                         : 18.6 Mbps
Width                            : 1 920 pixels
Height                           : 1 080 pixels
Display aspect ratio             : 16:9
Frame rate                       : 23.976 fps
Original frame rate              : 29.970 fps
Chroma subsampling               : 4:2:0
Bit depth                        : 8 bits
Scan type                        : Progressive
Compression mode                 : Lossy
Bits/(Pixel*Frame)               : 0.375
Stream size                      : 19.6 GiB (94%)
Title                            : Братство волка
Language                         : Russian
Default                          : Yes
Forced                           : No

Audio #1
ID                               : 2
Format                           : AC-3
Format/Info                      : Audio Coding 3
Mode extension                   : CM (complete main)
Muxing mode                      : Header stripping
Codec ID                         : A_AC3
Duration                         : 2h 30mn
Bit rate mode                    : Constant
Bit rate                         : 384 Kbps
Channel(s)                       : 6 channels
Channel positions                : Front: L C R, Side: L R, LFE
Sampling rate                    : 48.0 KHz
Bit depth                        : 16 bits
Compression mode                 : Lossy
Stream size                      : 413 MiB (2%)
Title                            : Братство волка (многолосый)
Language                         : Russian
Default                          : Yes
Forced                           : Yes

Audio #2
ID                               : 3
Format                           : AC-3
Format/Info                      : Audio Coding 3
Mode extension                   : CM (complete main)
Muxing mode                      : Header stripping
Codec ID                         : A_AC3
Duration                         : 2h 30mn
Bit rate mode                    : Constant
Bit rate                         : 448 Kbps
Channel(s)                       : 6 channels
Channel positions                : Front: L C R, Side: L R, LFE
Sampling rate                    : 48.0 KHz
Bit depth                        : 16 bits
Compression mode                 : Lossy
Stream size                      : 482 MiB (2%)
Title                            : Дубляж
Language                         : Russian
Default                          : No
Forced                           : No

2)  General
Unique ID                        : 211056459686809405643041321515027242830 (0x9EC7FEDD75E065499A917281CD139F4E)
Complete name                    : H:\Меняющие реальность  The Adjustment Bureau [HD] REMUX [Лицензия]\Меняющие реальность  The Adjustment Bureau [HD] REMUX [Лицензия].mkv
Format                           : Matroska
Format version                   : Version 2
File size                        : 22.9 GiB
Duration                         : 1h 45mn
Overall bit rate                 : 31.0 Mbps
Encoded date                     : UTC 2011-07-07 02:54:34
Writing application              : mkvmerge v4.4.0 ('Die Wiederkehr') сборка от Dec 25 2010 23:32:50
Writing library                  : libebml v1.0.0 + libmatroska v1.0.0

Video
ID                               : 1
Format                           : VC-1
Format profile                   : AP@L3
Codec ID                         : WVC1
Codec ID/Hint                    : Microsoft
Duration                         : 1h 45mn
Bit rate                         : 30.0 Mbps
Width                            : 1 920 pixels
Height                           : 1 080 pixels
Display aspect ratio             : 16:9
Frame rate                       : 23.976 fps
Chroma subsampling               : 4:2:0
Bit depth                        : 8 bits
Scan type                        : Progressive
Compression mode                 : Lossy
Bits/(Pixel*Frame)               : 0.603
Stream size                      : 22.2 GiB (97%)
Title                            : Меняющие реальность BD REMUX @muxing maxpat
Language                         : English
Default                          : Yes
Forced                           : No

Audio
ID                               : 2
Format                           : AC-3
Format/Info                      : Audio Coding 3
Mode extension                   : CM (complete main)
Muxing mode                      : Header stripping
Codec ID                         : A_AC3
Duration                         : 1h 45mn
Bit rate mode                    : Constant
Bit rate                         : 384 Kbps
Channel(s)                       : 6 channels
Channel positions                : Front: L C R, Side: L R, LFE
Sampling rate                    : 48.0 KHz
Bit depth                        : 16 bits
Compression mode                 : Lossy
Stream size                      : 291 MiB (1%)
Title                            : Дубляж AC3 384 кбит 6ch @muxing maxpat
Language                         : Russian
Default                          : Yes
Forced                           : No

Menu
00:00:00.000                     : :Chapter 01
00:06:37.770                     : :Chapter 02
00:14:17.480                     : :Chapter 03
00:20:58.214                     : :Chapter 04
00:28:35.547                     : :Chapter 05
00:31:11.493                     : :Chapter 06
00:35:22.244                     : :Chapter 07
00:38:58.835                     : :Chapter 08
00:43:07.001                     : :Chapter 09
00:51:35.050                     : :Chapter 10
00:58:33.009                     : :Chapter 11
01:02:14.981                     : :Chapter 12
01:07:32.088                     : :Chapter 13
01:12:00.649                     : :Chapter 14
01:14:13.488                     : :Chapter 15
01:19:47.573                     : :Chapter 16
01:24:11.546                     : :Chapter 17
01:30:00.603                     : :Chapter 18
01:35:53.747                     : :Chapter 19
01:38:54.470                     : :Chapter 20
01:45:50.092                     : :Chapter 21

3) General
Unique ID                        : 229759778298329446875314100060081636953 (0xACDA1FAB119BFC85B58901449FA44659)
Complete name                    : H:\Старикам тут не место - No Country for Old Men [HD] BD-REMUX (Лицензия)\Старикам тут не место - No Country for Old Men [HD] BD-REMUX (Лицензия).mkv
Format                           : Matroska
Format version                   : Version 1
File size                        : 22.4 GiB
Duration                         : 2h 2mn
Overall bit rate mode            : Variable
Overall bit rate                 : 26.2 Mbps
Encoded date                     : UTC 2008-03-02 21:48:56
Writing application              : mkvmerge v2.1.0 ('Another Place To Fall') built on Aug 19 2007 13:40:07
Writing library                  : libebml v0.7.7 + libmatroska v0.8.1

Video
ID                               : 1
Format                           : AVC
Format/Info                      : Advanced Video Codec
Format profile                   : High@L4.1
Format settings, CABAC           : Yes
Format settings, ReFrames        : 3 frames
Codec ID                         : V_MPEG4/ISO/AVC
Duration                         : 2h 2mn
Bit rate mode                    : Variable
Bit rate                         : 22.7 Mbps
Maximum bit rate                 : 40.0 Mbps
Width                            : 1 920 pixels
Height                           : 1 080 pixels
Display aspect ratio             : 16:9
Frame rate                       : 23.976 fps
Standard                         : NTSC
Color space                      : YUV
Chroma subsampling               : 4:2:0
Bit depth                        : 8 bits
Scan type                        : Progressive
Bits/(Pixel*Frame)               : 0.456
Stream size                      : 19.3 GiB (86%)
Language                         : English
Default                          : Yes
Forced                           : No

Audio #1
ID                               : 2
Format                           : DTS
Format/Info                      : Digital Theater Systems
Codec ID                         : A_DTS
Duration                         : 2h 2mn
Bit rate mode                    : Constant
Bit rate                         : 1 510 Kbps
Channel(s)                       : 6 channels
Channel positions                : Front: L C R, Side: L R, LFE
Sampling rate                    : 48.0 KHz
Bit depth                        : 24 bits
Compression mode                 : Lossy
Stream size                      : 1.29 GiB (6%)
Title                            : DTS 5.1 by MIF
Language                         : Russian
Default                          : Yes
Forced                           : No

Audio #2
ID                               : 3
Format                           : DTS
Format/Info                      : Digital Theater Systems
Codec ID                         : A_DTS
Duration                         : 2h 2mn
Bit rate mode                    : Constant
Bit rate                         : 1 510 Kbps
Channel(s)                       : 6 channels
Channel positions                : Front: L C R, Side: L R, LFE
Sampling rate                    : 48.0 KHz
Bit depth                        : 24 bits
Compression mode                 : Lossy
Stream size                      : 1.29 GiB (6%)
Title                            : DTS 5.1 by MIF
Language                         : English
Default                          : No
Forced                           : No
Написано:  03 Дек 2011 15:42
модель плеера и версия прошивки?
__________________
Где купить WD TV: Live Streaming
Написано:  03 Дек 2011 16:00
модель wd00avp
прошивка 1.03.01
Написано:  03 Дек 2011 17:38
это gen1, получается? значит, проблема во включённом сжатии заголовков в версии MKVmerge 4.4.0 (подробнее тут), в прошивках для gen1 это не фиксили - единственный вариант, пересобрать mkv контейнер более старой версией MKVmerge, например 4.0.0 (но не старше), скорее всего всё ок будет!
__________________
Где купить WD TV: Live Streaming
Написано:  03 Дек 2011 17:43   Отредактировано: alukard
В 3 фильме у вас звука не будет,так как ген1 неможет декодировать дтс ! Либо на ресивер если есть,либо переделывать дорожку,а можно просто другой вариант скачать.
__________________
Sharp LC-32X20RU + WDTV Gen2 + WDTV Live (если понравилось 41001352107159 яндекс)
Написано:  03 Дек 2011 20:40
скачал mkvtoolnix-unicode-2.4.2-setup.exe
установил, при конвертации все равно выходит ошибка такая же
Написано:  03 Дек 2011 21:58
а какая именно ошибка?
__________________
Где купить WD TV: Live Streaming
Написано:  10 Дек 2011 12:44   Отредактировано: alukard
если куплю WD Elements Play [WDBACC0020HBK] dts будет на телек выводить? и вообще насколько WD Elements Play [WDBACC0020HBK]
лучше gen1 ?
Написано:  10 Дек 2011 12:49
ошибка при конвертации с dts в ac3 такая выходит:
Error: cstrutf8_to_UTFstring: Invalid UTF-8 sequence encountered. Please contact moritz@bunkus.org and request that he implements a
better UTF-8 parser.
Написано:  10 Дек 2011 13:01   Отредактировано: alukard
Нет на элемент тоже самое(это почти тот же ген1 только с диском),лучше уж дождитесь появления нового лайв http://wdhd.ru/board/index.php?a=vtopic&t=3599 .
__________________
Sharp LC-32X20RU + WDTV Gen2 + WDTV Live (если понравилось 41001352107159 яндекс)
Написано:  10 Дек 2011 17:21
sveb, насчёт конвертации я вот тут отвечал, если есть желание - можно попробовать.. или скачать другой релиз (может так и проще будет)
__________________
Где купить WD TV: Live Streaming
Написано:  08 Фев 2012 20:08
Помогите нету звука при просмотре фильмов через кино-дом. Пишет отсутствие звукового файла в пропертис пишет тип  файла UNKNOWN ?звуковой файл идет отдельно!
У меня WDtv Live прошивка WDLXTV -1.05.04_V_WDLXTV.COM_WDLXTV_LIVE-0.5.1.0
Написано:  08 Фев 2012 20:17
Хм - через кино-дом , случаем не через плагин Djarty,тогда вопрос в другую тему,незабыв изучить 1 страницу темы ?!
__________________
Sharp LC-32X20RU + WDTV Gen2 + WDTV Live (если понравилось 41001352107159 яндекс)
Написано:  11 Фев 2012 14:14
Я точно не могу сказать какой плагин ? Закачал через веб-морду прямиком  мультики смотрю - правда подымает файл тяжело, но потом звук должен включать в ручную через опции.С  фильмами сериалами через кино-дом нет звука!!! но эта тема уже обсуждалась с "прибамбасом"
непонятно найдено ли решение?хотел попробовать IPTV но не грузит ? не знаю для израиля это наверно не релевантно?
Спасибо.
Написано:  11 Фев 2012 15:21
В кинодоме если нет звука то выбирается пункт Fix sound  и это таки в теме Filmsonline надо обсуждать (кроме того Fix работает если ffmpeg в прошивке имеется - в 1.02. имеется, в 1.05 возможно его надо ставить отдельно).
__________________
WD TV Live (1.02.21-..-0.4.7.3)
Для пива: WM R161810775332(руб);WM Z114867333413($);WM U219453404899(грн); Я.Money:410011402801986
Filmsonline, русский поиск ->Мэйл<- IPTV
Написано:  11 Фев 2012 18:11   Отредактировано: alukard
Спасибо!!! Пробовал фиксить не подымает,попробую дольше подождать.
Написано:  12 Фев 2012 00:04
Не все фильмы играет со звуком но некоторым таблетка (fix) помогла !

Поделитесь со своими друзьями в соцсетях: