Неофициальный клуб пользователей HD видео плеера WD TV


»Юзер: »Пароль:   Запомнить? 
WDTV Forum / Форум про WD TV Gen2 / Опыт эксплуатации / поиогите с фильмом
Написано:  23 Ноя 2011 18:02
после включения данного фильма виснет вся приставка все фильмы видит и ничего не открывает только через отключение wd gen2 прошивка v194 или 200 не помню
Общее
Уникальный идентификатор         : 174728861276889365512395245200151527391 (0x83738DFACD4E57BB8FEB70DF0555BFDF)
Полное имя                       : D:\кино\Успеть за 30 минут =30 Minutes or Less= (BDRip 720p 2011)[Rus D].mkv
Формат                           : Matroska
Размер файла                     : 2,90 Гбайт
Продолжительность                : 1 ч. 23 м.
Общий поток                      : 5000 Кбит/сек
Название фильма                  : --SCHUMAHER--
Дата кодирования                 : UTC 2011-11-08 07:31:00
Программа кодирования            : mkvmerge v4.6.0 ('Still Crazy After All These Years') сборка от Mar 10 2011 02:50:32
Библиотека кодирования           : libebml v1.2.0 + libmatroska v1.1.0

Видео
Идентификатор                    : 1
Формат                           : AVC
Формат/Информация                : Advanced Video Codec
Профиль формата                  : High@L4.1
Параметр CABAC формата           : Да
Параметр ReFrames формата        : 12 кадры
Режим смешивания                 : Header stripping
Идентификатор кодека             : V_MPEG4/ISO/AVC
Продолжительность                : 1 ч. 23 м.
Битрейт                          : 4552 Кбит/сек
Ширина                           : 1280 пикс.
Высота                           : 534 пикс.
Соотношение сторон               : 2,35:1
Частота кадров                   : 23,976 кадр/сек
Цветовое пространство            : YUV
Подвыборка цветности             : 4:2:0
Битовая глубина                  : 8 бит
Тип развёртки                    : Прогрессивная
Бит/(Пиксели*Кадры)              : 0.278
Размер потока                    : 2,58 Гбайт (89%)
Заголовок                        : 30.Minutes.or.Less.2011.BluRay.720p.DTS.x264-CHD
Библиотека кодирования           : x264 core 102 r1666 d058f37
Настройки программы              : cabac=1 / ref=12 / deblock=1:-3:-3 / analyse=0x3:0x113 / me=umh / subme=10 / psy=1 / psy_rd=1.05:0.10 / mixed_ref=1 / me_range=32 / chroma_me=1 / trellis=2 / 8x8dct=1 / cqm=2 / deadzone=21,11 / fast_pskip=0 / chroma_qp_offset=-2 / threads=6 / sliced_threads=0 / nr=0 / decimate=1 / interlaced=0 / constrained_intra=0 / bframes=6 / b_pyramid=2 / b_adapt=2 / b_bias=0 / direct=3 / weightb=1 / open_gop=0 / weightp=2 / keyint=250 / keyint_min=25 / scenecut=40 / intra_refresh=0 / rc_lookahead=40 / rc=2pass / mbtree=1 / bitrate=4552 / ratetol=1.0 / qcomp=0.60 / qpmin=10 / qpmax=51 / qpstep=4 / cplxblur=20.0 / qblur=0.5 / vbv_maxrate=50000 / vbv_bufsize=50000 / ip_ratio=1.40 / aq=1:0.80 / nal_hrd=none
Язык                             : English

Аудио
Идентификатор                    : 2
Формат                           : AC-3
Формат/Информация                : Audio Coding 3
Расширение режима                : CM (complete main)
Режим смешивания                 : Header stripping
Идентификатор кодека             : A_AC3
Продолжительность                : 1 ч. 23 м.
Вид битрейта                     : Постоянный
Битрейт                          : 448 Кбит/сек
Канал(ы)                         : 6 канала(ов)
Расположение каналов             : Front: L C R, Side: L R, LFE
Частота                          : 48,0 КГц
Битовая глубина                  : 16 бит
Метод сжатия                     : С потерями
Размер потока                    : 266 Мбайт (9%)
Заголовок                        : DUB @ 448k
Язык                             : Russian
Написано:  23 Ноя 2011 18:13   Отредактировано: touch
Цитата:
Программа кодирования: mkvmerge v4.6.0 ('Still Crazy After All These Years') сборка от Mar 10 2011 02:50:32
Библиотека кодирования: libebml v1.2.0 + libmatroska v1.1.0

это из-за сжатия заголовков в mkv, тут подробней написано.. если кратко, то можно пересобрать контейнер mkvmerge более ранних версий, например 4.0.0 - будет всё ок
__________________
Где купить WD TV: Live Streaming
Написано:  07 Дек 2011 11:36
Здравствуйте,подскажите пожалуйста закачался фильмов в Mkv половина не показывает,из вышесказаного я понял что нужно пересобрать контейнер mkvmerge более ранней версии 4.0.0 .это так?если да то можно поподробней как это сделать,заранее спасибо.
Написано:  07 Дек 2011 11:59
так там же ссылка была, чуть выше
http://wdhd.ru/faq.php?q_id=13
скачать mkvmerge 4.0.0 (там в тексте есть ссылка, откуда качать), дальше читаем начиная со слов "MKVmerge: программа позволяет "собрать" несколько элементарных аудио/видео потоков в MKV контейнер"
__________________
Где купить WD TV: Live Streaming
Написано:  07 Дек 2011 19:39
я скачал медиаинфо и посмотрел файла вот пример первый показывает:


Уникальный идентификатор         : 216991393938371505358984552978472977527 (0xA33F05B728857A679538D9A492E74477)
Полное имя                       : H:\Блэйд 2.mkv
Формат                           : Matroska
Версия формата                   : Version 2
Размер файла                     : 2,29 Гбайт
Продолжительность                : 1 ч. 56 м.
Режим общего битрейта            : Переменный
Общий поток                      : 2803 Кбит/сек
Название фильма                  : Rip by Romeo (FLINTFILMS.RU)
Дата кодирования                 : UTC 2010-08-17 21:17:18
Программа кодирования            : mkvmerge v3.0.0 ('Hang up your Hang-Ups') built on Dec 12 2009 15:20:35
Библиотека кодирования           : libebml v0.7.9 + libmatroska v0.8.1

Видео
Идентификатор                    : 1
Формат                           : AVC
Формат/Информация                : Advanced Video Codec
Профиль формата                  : High@L4.1
Параметр CABAC формата           : Да
Параметр ReFrames формата        : 3 кадра
Идентификатор кодека             : V_MPEG4/ISO/AVC
Продолжительность                : 1 ч. 56 м.
Вид битрейта                     : Переменный
Битрейт                          : 2373 Кбит/сек
Максимальный битрейт             : 17,5 Мбит/сек
Ширина                           : 1280 пикселей
Высота                           : 720 пикселей
Соотношение сторон               : 16:9
Частота кадров                   : 23,976 кадра/сек
Цветовое пространство            : YUV
Субдискретизация насыщенности    : 4:2:0
Битовая глубина                  : 8 бит
Тип развёртки                    : Прогрессивная
Бит/(Пиксели*Кадры)              : 0.107
Размер потока                    : 1,88 Гбайт (82%)
Заголовок                        : Блэйд 2.[flintfilms.ru]
Библиотека кодирования           : x264 core 102 r1666 d058f37
Настройки программы              : cabac=1 / ref=1 / deblock=1:0:0 / analyse=0x3:0x3 / me=dia / subme=1 / psy=1 / psy_rd=0.00:0.00 / mixed_ref=0 / me_range=16 / chroma_me=1 / trellis=0 / 8x8dct=1 / cqm=0 / deadzone=21,11 / fast_pskip=1 / chroma_qp_offset=0 / threads=6 / sliced_threads=0 / slices=4 / nr=0 / decimate=1 / interlaced=0 / constrained_intra=0 / bframes=3 / b_pyramid=1 / b_adapt=1 / b_bias=0 / direct=1 / weightb=1 / open_gop=0 / weightp=0 / keyint=24 / keyint_min=1 / scenecut=40 / intra_refresh=0 / rc_lookahead=0 / rc=abr / mbtree=0 / bitrate=2373 / ratetol=1.0 / qcomp=0.60 / qpmin=0 / qpmax=51 / qpstep=4 / vbv_maxrate=17500 / vbv_bufsize=14500 / ip_ratio=1.10 / pb_ratio=1.10 / aq=1:1.00 / nal_hrd=vbr
Язык                             : Finnish
Default                          : Да
Forced                           : Нет

Аудио
Идентификатор                    : 2
Формат                           : AC-3
Формат/Информация                : Audio Coding 3
Расширение режима                : CM (complete main)
Идентификатор кодека             : A_AC3
Продолжительность                : 1 ч. 56 м.
Вид битрейта                     : Постоянный
Битрейт                          : 448 Кбит/сек
Каналы                           : 6 каналов
Расположение каналов             : Front: L C R, Side: L R, LFE
Частота                          : 48,0 КГц
Битовая глубина                  : 16 бит
Метод сжатия                     : С потерями
Размер потока                    : 374 Мбайт (16%)
Заголовок                        : Профессиональный (дубляж)
Язык                             : Russian
Default                          : Да
Forced                           : Нет
а этот не показывает:


Уникальный идентификатор         : 221275386122973258950471729149481524513 (0xA67816D666CCBD69925CE33908631D21)
Полное имя                       : H:\поворот не туда.mkv
Формат                           : Matroska
Версия формата                   : Version 2
Размер файла                     : 2,01 Гбайт
Продолжительность                : 1 ч. 20 м.
Режим общего битрейта            : Переменный
Общий поток                      : 3557 Кбит/сек
Название фильма                  : Rip by Romeo (FLINTFILMS.RU)
Дата кодирования                 : UTC 2010-06-26 20:01:06
Программа кодирования            : mkvmerge v3.0.0 ('Hang up your Hang-Ups') built on Dec 12 2009 15:20:35
Библиотека кодирования           : libebml v0.7.9 + libmatroska v0.8.1

Видео
Идентификатор                    : 1
Формат                           : AVC
Формат/Информация                : Advanced Video Codec
Профиль формата                  : High@L4.1
Параметр CABAC формата           : Да
Параметр ReFrames формата        : 3 кадра
Идентификатор кодека             : V_MPEG4/ISO/AVC
Продолжительность                : 1 ч. 20 м.
Вид битрейта                     : Переменный
Битрейт                          : 3248 Кбит/сек
Максимальный битрейт             : 17,5 Мбит/сек
Ширина                           : 1280 пикселей
Высота                           : 720 пикселей
Соотношение сторон               : 16:9
Частота кадров                   : 25,000 кадров/сек
Цветовое пространство            : YUV
Субдискретизация насыщенности    : 4:2:0
Битовая глубина                  : 8 бит
Тип развёртки                    : Прогрессивная
Бит/(Пиксели*Кадры)              : 0.141
Размер потока                    : 1,75 Гбайт (87%)
Заголовок                        : Поворот не туда.[flintfilms.ru]
Библиотека кодирования           : x264 core 96 r1613 81e75e9
Настройки программы              : cabac=1 / ref=1 / deblock=1:0:0 / analyse=0x3:0x3 / me=dia / subme=1 / psy=1 / psy_rd=0.00:0.00 / mixed_ref=0 / me_range=16 / chroma_me=1 / trellis=0 / 8x8dct=1 / cqm=0 / deadzone=21,11 / fast_pskip=1 / chroma_qp_offset=0 / threads=6 / sliced_threads=0 / slices=4 / nr=0 / decimate=1 / interlaced=0 / constrained_intra=0 / bframes=3 / b_pyramid=1 / b_adapt=1 / b_bias=0 / direct=1 / weightb=1 / weightp=0 / keyint=24 / keyint_min=1 / scenecut=40 / intra_refresh=0 / rc_lookahead=24 / rc=abr / mbtree=0 / bitrate=3248 / ratetol=1.0 / qcomp=0.60 / qpmin=0 / qpmax=51 / qpstep=4 / vbv_maxrate=17500 / vbv_bufsize=14500 / ip_ratio=1.10 / pb_ratio=1.10 / aq=1:1.00 / nal_hrd=vbr
Язык                             : English
Default                          : Да
Forced                           : Нет

Аудио
Идентификатор                    : 2
Формат                           : AC-3
Формат/Информация                : Audio Coding 3
Расширение режима                : CM (complete main)
Идентификатор кодека             : A_AC3
Продолжительность                : 1 ч. 20 м.
Вид битрейта                     : Постоянный
Битрейт                          : 384 Кбит/сек
Каналы                           : 6 каналов
Расположение каналов             : Front: L C R, Side: L R, LFE
Частота                          : 48,0 КГц
Битовая глубина                  : 16 бит
Метод сжатия                     : С потерями
Задержка видео                   : 1 с. 200 мс.
Размер потока                    : 222 Мбайт (11%)
Заголовок                        : Дублированный
Язык                             : Russian
Default                          : Да
Forced                           : Нет
и ещё когда смотрю список  допустим: аватар/2,1GB этот показывает,а если: терминатор(далее нет его объёма) этот не показывает.подскажите пожалуйста.и все файлы у которых не отображается в конце названия объём не показывают
Написано:  07 Дек 2011 20:58
Если стоит офф прошивка,изучаем про названия http://wdhd.ru/board/index.php?a=vtopic&t=1246 .
__________________
Sharp LC-32X20RU + WDTV Gen2 + WDTV Live (если понравилось 41001352107159 яндекс)
Написано:  07 Дек 2011 22:04
сегодня установил прошивку от подавана думал будет изменения,но всё равно не показывает
Написано:  07 Дек 2011 22:49
Какую именно поставил?
__________________
WD TV Gen 2 (LaCie v0.3) + DWA-140 (v1.71)
Написано:  07 Дек 2011 22:58
200
Написано:  08 Дек 2011 12:00
Здравствуйте,помогите по моей проблеме описанной сверху
Написано:  08 Дек 2011 12:08
dmistep, ты почитай по ссылке алукарда, чуть выше он давал..
__________________
Где купить WD TV: Live Streaming
Написано:  08 Дек 2011 17:16
Всем большое спасибо написал перед русским по англ. И всё пошло.ещё раз спасибо.
Написано:  08 Дек 2011 19:23
dmistep, можно поставить LaCie от Padavan и никаких проблем...
__________________
WD TV Gen 2 (LaCie v0.3) + DWA-140 (v1.71)

Поделитесь со своими друзьями в соцсетях:

WDTV Forum / Форум про WD TV Gen2 / Опыт эксплуатации / поиогите с фильмом