Неофициальный клуб пользователей HD видео плеера WD TV


»Юзер: »Пароль:   Запомнить? 
Написано:  04 Авг 2009 21:54
почемуто не хочет воспроизводить ,хотя не уверен сможет ли вот его характеристики
General
Complete name                    : D:\downloads\Naruto TV\Naruto.022.ogm
Format                           : OGG
File size                        : 272 MiB
Duration                         : 23mn 22s
Overall bit rate                 : 1 627 Kbps
Writing application              : Made with BeSweet v1.5b29

Video
ID                               : 0 (0x0)
Format                           : MPEG-4 Visual
Codec ID                         : XVID
Codec ID/Hint                    : XviD
Duration                         : 23mn 20s
Bit rate                         : 1 359 Kbps
Width                            : 512 pixels
Height                           : 384 pixels
Display aspect ratio             : 4/3
Frame rate                       : 29.970 fps
Bits/(Pixel*Frame)               : 0.231

Audio #1
ID                               : 1 (0x1)
Format                           : Vorbis
Format settings, Floor           : 1
Duration                         : 23mn 22s
Bit rate mode                    : Constant
Bit rate                         : 96.0 Kbps
Channel(s)                       : 2 channels
Sampling rate                    : 48.0 KHz
Replay gain                      : 1.29 dB
Stream size                      : 16.0 MiB (6%)
Writing library                  : libVorbis 1.0 (UTC 2002-07-17)
Language                         : Russian

Audio #2
ID                               : 2 (0x2)
Format                           : Vorbis
Format settings, Floor           : 1
Duration                         : 23mn 22s
Bit rate mode                    : Constant
Bit rate                         : 96.0 Kbps
Channel(s)                       : 2 channels
Sampling rate                    : 48.0 KHz
Replay gain                      : 1.14 dB
Stream size                      : 16.0 MiB (6%)
Writing library                  : libVorbis 1.0 (UTC 2002-07-17)
Language                         : English

Text
ID                               : 3 (0x3)
Format                           : Subrip
__________________
Sharp LC-32X20RU + WDTV Gen2 + WDTV Live (если понравилось 41001352107159 яндекс)
Написано:  05 Авг 2009 22:04
Цитата:
Naruto.022.ogm

ну о поддержке ogm контейнера ничего не заявлено!
предполагаю - не пойдёт он на wdtv
но что касается начинки файла, то не вижу ничего страшного там.. xvid играется, ogg двухканальный вроде тоже (на прошивке 1.02.10 я недавно пробовал - всё ок).. так что думаю, если это дело перепаковать в ту же матрёшку - всё будет работать!
__________________
Где купить WD TV: Live Streaming
Написано:  06 Авг 2009 07:16
ок спасибки как-нибудь попробую переделать
__________________
Sharp LC-32X20RU + WDTV Gen2 + WDTV Live (если понравилось 41001352107159 яндекс)

Поделитесь со своими друзьями в соцсетях: