Неофициальный клуб пользователей HD видео плеера WD TV


»Юзер: »Пароль:   Запомнить? 
WDTV Forum / Форум про HD фильмы / Эти фильмы играются / Форсаж 4 / Fast & Furious (2009) Blu-ray Remux
Написано:  28 Июл 2009 21:33   Отредактировано: NetSearcher
Форсаж 4 / Fast & Furious (2009) Blu-ray Remux

Статус идёт без глюков



Название: Форсаж 4
Оригинальное название: Fast & Furious
Год выхода: 2009
Жанр: Боевик, триллер, драма, криминал
Режисcер: Джастин Лин
В ролях: Вин Дизель, Пол Уокер, Джордана Брюстер, Мишель Родригес, Джон Ортиз, Лас Алонсо, Гал Гадот, Джек Конли, Ши Уигхэм, Лиза Лапира

О фильме:
Когда кривая дорожка заставляет скрывающегося от правосудия Дома Торетто вернуться в Лос-Анджелес, вражда с агентом Брайаном О’Коннером вспыхивает с новой силой. Но у парочки обнаруживается общий противник, и Дому с Брайаном приходится заключить перемирие в надежде одержать над ним победу. Грабя конвои, роя подкопы и пересекая границы, они приходят к идеальной форме отмщения — педали газа, вдавленной до упора

Награды




Выпущено: США, Universal Pictures
Продолжительность: 01:46:52

Файл
Качество: Blu-ray Remux
Видео: VC-1, NTSC 23.976, 1920 x 1080, 27 314 кбит/с
Звук #1: Русский (Дублированный), DTS, 6ch (L, C, R, Ls, Rs +LFE), 768 кбит/с |Лицензия|
Звук #2: Украинский (Дублированный), AC3, 6ch (L, C, R, Ls, Rs +LFE), 448 *
Звук #3: Английский (Оригинал), DTS-HD MА, 6ch (L, C, R, Ls, Rs +LFE), 4171 кбит/с |DTS Core: 5.1 / 48 kHz / 1509 kbps / 24-bit|
Звук #4: Английский (Оригинал), AC3, 2ch (L,R), 192 кбит/с |Коментарии|
Субтитры: Русский, Английский

http://tracker.0day.kiev.ua/details.php?id=61937 GOLD раздача


Прога наподобе mediainfo - BDInfo
[ Скрытый текст ]


mediainfo:

General
ID                               : 1
Complete name                    : N:\hd films\Fast_&_Furious_HD_Oday\BDMV\STREAM\00001.m2ts
Format                           : BDAV
Format/Info                      : BluRay Video
File size                        : 26.0 GiB
Duration                         : 1h 46mn
Overall bit rate                 : 34.8 Mbps
Maximum Overall bit rate         : 35.5 Mbps

Video
ID                               : 4113 (0x1011)
Menu ID                          : 1 (0x1)
Format                           : VC-1
Format profile                   : AP@L3
Duration                         : 1h 46mn
Width                            : 1 920 pixels
Height                           : 1 080 pixels
Display aspect ratio             : 16/9
Frame rate                       : 23.976 fps
Colorimetry                      : 4:2:0
Scan type                        : Progressive

Audio #1
ID                               : 4352 (0x1100)
Menu ID                          : 1 (0x1)
Format                           : DTS
Format/Info                      : Digital Theater Systems
Duration                         : 1h 46mn
Bit rate mode                    : Constant
Bit rate                         : 755 Kbps
Channel(s)                       : 6 channels
Channel positions                : Front: L C R, Surround: L R, LFE
Sampling rate                    : 48.0 KHz
Resolution                       : 24 bits
Stream size                      : 577 MiB (2%)
Language                         : Russian

Audio #2
ID                               : 4353 (0x1101)
Menu ID                          : 1 (0x1)
Format                           : AC-3
Format/Info                      : Audio Coding 3
Duration                         : 1h 46mn
Bit rate mode                    : Constant
Bit rate                         : 448 Kbps
Channel(s)                       : 6 channels
Channel positions                : Front: L C R, Surround: L R, LFE
Sampling rate                    : 48.0 KHz
Stream size                      : 342 MiB (1%)
Language                         : Ukrainian

Audio #3
ID                               : 4354 (0x1102)
Menu ID                          : 1 (0x1)
Format                           : DTS
Format/Info                      : Digital Theater Systems
Format profile                   : MA
Duration                         : 1h 46mn
Bit rate mode                    : Variable
Channel(s)                       : 6 channels
Channel positions                : Front: L C R, Surround: L R, LFE
Sampling rate                    : 48.0 KHz
Resolution                       : 24 bits
Language                         : English

Audio #4
ID                               : 4355 (0x1103)
Menu ID                          : 1 (0x1)
Format                           : AC-3
Format/Info                      : Audio Coding 3
Format profile                   : Dolby Digital
Duration                         : 1h 46mn
Bit rate mode                    : Constant
Bit rate                         : 192 Kbps
Channel(s)                       : 2 channels
Channel positions                : L R
Sampling rate                    : 48.0 KHz
Stream size                      : 147 MiB (1%)
Language                         : English

Text #1
ID                               : 4608 (0x1200)
Menu ID                          : 1 (0x1)
Format                           : PGS
Language                         : Russian

Text #2
ID                               : 4609 (0x1201)
Menu ID                          : 1 (0x1)
Format                           : PGS
Language                         : English
__________________
REMUX FOREVER

Watching HD on: LCD Sharp 46XL2E, Yamaha RX-V563, Yamaha NS-777, Yamaha NS-333, Yamaha NS-444, Yamaha YST-SW215, WD TV, My Book EE 1 TB (3), HP SE 1.5 ТБ (1)|| DVD watching on: Yamaha DVD-S663|| DVD-Audio, SACD: Onkyo DV-SP504E
Написано:  28 Окт 2009 09:50
Подскажите
У меня в этом фильме  звук русский не идет
Написано:  28 Окт 2009 11:59
а что-нибудь  делалось,чтобы шёл?
__________________
TV Panasonic R42PY85,WDTV-1,WD My Book 1Tb,HDD Lacie 320Gb,Power Console Pure AV PF50,DVD-Video Denon DVD-2800,DVD-Audio Marantz DV6500,CD Audio Innovations Alto,H\A D10 Cobra,A\V Technics SA-DA8,Audio Pro Cinema 5.1,XBOX 360 Elite.
Написано:  28 Окт 2009 12:55
у меня все дорожки русские игрались.

ZZZdream как подключён WD TV у тебя, если ресивера нет то и не будет русского - только украинский и комментарии.
__________________
REMUX FOREVER

Watching HD on: LCD Sharp 46XL2E, Yamaha RX-V563, Yamaha NS-777, Yamaha NS-333, Yamaha NS-444, Yamaha YST-SW215, WD TV, My Book EE 1 TB (3), HP SE 1.5 ТБ (1)|| DVD watching on: Yamaha DVD-S663|| DVD-Audio, SACD: Onkyo DV-SP504E
Написано:  28 Окт 2009 13:27
Цитата:
Подскажите
У меня в этом фильме  звук русский не идет

может следовало аудиодорожки попереключать? в WDTV есть такая возможность
__________________
TV Panasonic R42PY85,WDTV-1,WD My Book 1Tb,HDD Lacie 320Gb,Power Console Pure AV PF50,DVD-Video Denon DVD-2800,DVD-Audio Marantz DV6500,CD Audio Innovations Alto,H\A D10 Cobra,A\V Technics SA-DA8,Audio Pro Cinema 5.1,XBOX 360 Elite.
Написано:  30 Окт 2009 01:08
тюльпанами к усилку подключино но звука российского не слыхать
Написано:  30 Окт 2009 07:29
конечно! там русский в dts
через тюльпаны будет украинский и английский только русский - перекодировать (см. faq на этот счёт)
__________________
Где купить WD TV: Live Streaming
Написано:  03 Ноя 2009 19:12
А вкакой именно папке он лежит
Написано:  03 Ноя 2009 22:35
Цитата:
А вкакой именно папке он лежит


BDMV\STREAM\00001.m2ts  в этом файле и видео и звук.
__________________
REMUX FOREVER

Watching HD on: LCD Sharp 46XL2E, Yamaha RX-V563, Yamaha NS-777, Yamaha NS-333, Yamaha NS-444, Yamaha YST-SW215, WD TV, My Book EE 1 TB (3), HP SE 1.5 ТБ (1)|| DVD watching on: Yamaha DVD-S663|| DVD-Audio, SACD: Onkyo DV-SP504E
Написано:  04 Ноя 2009 00:08
и как ево мне перекодировать

конечно! там русский в dts
через тюльпаны будет украинский и английский только  русский - перекодировать (см. faq на этот счёт)

Я пробую прогой как FAQ  написанно но уменя ошибку выдает сож что не так делаю???
Написано:  04 Ноя 2009 09:23
Цитата:
Я пробую прогой как FAQ  написанно но уменя ошибку выдает сож что не так делаю?

ну всё просто:
1. вытащить дорогу с помощью tsMuser
2. перекодировать с помощью eac3to
3. вставить обратно с помощью txMuxer
__________________
Где купить WD TV: Live Streaming

Поделитесь со своими друзьями в соцсетях:

WDTV Forum / Форум про HD фильмы / Эти фильмы играются / Форсаж 4 / Fast & Furious (2009) Blu-ray Remux