Неофициальный клуб пользователей HD видео плеера WD TV


»Юзер: »Пароль:   Запомнить? 
WDTV Forum / Форум про HD фильмы / Эти фильмы играются / Перевозчик 1, 2, 3 1080p remux
Написано:  28 Июл 2009 21:02   Отредактировано: NetSearcher
Статус все 3 части идут без глюков

Перевозчик / The Transporter (2002)



Описание    Бывший десантник спокойно занимается своим малым бизнесом - перевозит криминальные грузы и ни во что не вникает, чтобы спокойно спать.
Но однажды из мешка с грузом вылазит симпатичная китаяночка без комплексов, которая оказывается дочкой видного китайского мафиози...

Дополнительно    Диск пересобрал сам из оригинального Blu-ray диска. Используемые программы: BD Reauthor от DVDLogic и Sonic Scenarist HDMV. Полностью сохранена структура оригинального Blu-ray диска (включая меню, Pop-up меню, и т.д.). Заменена в оригинальном диске испанская звуковая дорожка на русскую. Также в меню переделаны соответствующие кнопки.

Год    2002
Страна    Франция - США, Canal+, TF1 Films Productions, Europa Corp.
Жанр    Боевик, триллер, криминал
Продолжительность    01:32:09
Перевод    Профессиональный (полное дублирование)
Режиссер    Луис Летерье, Кори Юэнь
В ролях    Джейсон Стэтхэм, Ки Шу, Мэтт Шульц, Франсуа Берлеан, Рик Янг, Даг Рэнд, Didier Saint Melin, Тони Десканвелль, Laurent Desponds, Matthieu Albertini, Винсент Немет, Jean-Yves Bilien, Жан-Мари Пэрис, Adrian Dearnell, Alfred Lot, Одри Хэмм, Sebastien Migneau, Лоран Жамекур и др.
Качество    BD
Видео    MPEG2, 1920*1080p, 16:9, 23.976fps, 30,000,000bps
Аудио    Английский DTS-HD, Французский (Dolby Digital 5.1, 448 kbps), Русский (Dolby Digital 5.1, 640 kbps)
Субтитры   
Контейнер    Другой
Редактирован    2008-08-14 17:34:39

Тип    HD DVD/BD
Раздающий    Последний раз был здесь 5:21 назад
Размер    19.63 GB (21,078,540,038 байт)

http://hdtracker.ru/details.php?id=2371

mediainfo:

General
ID                               : 0
Complete name                    : N:\hd films\THE_TRANSPORTER_RUS\BDMV\STREAM\00000.m2ts
Format                           : BDAV
Format/Info                      : BluRay Video
File size                        : 16.9 GiB
Duration                         : 1h 32mn
Overall bit rate                 : 26.2 Mbps
Maximum Overall bit rate         : 48.0 Mbps

Video
ID                               : 4113 (0x1011)
Menu ID                          : 1 (0x1)
Format                           : MPEG Video
Format version                   : Version 2
Format profile                   : Main@High
Format settings, Matrix          : Default
Duration                         : 1h 32mn
Bit rate mode                    : Variable
Nominal bit rate                 : 30.0 Mbps
Width                            : 1 920 pixels
Height                           : 1 080 pixels
Display aspect ratio             : 16/9
Frame rate                       : 23.976 fps
Colorimetry                      : 4:2:0
Scan type                        : Progressive
Bits/(Pixel*Frame)               : 0.603

Audio #1
ID                               : 4352 (0x1100)
Menu ID                          : 1 (0x1)
Format                           : DTS
Format/Info                      : Digital Theater Systems
Format profile                   : MA
Duration                         : 1h 32mn
Bit rate mode                    : Variable
Channel(s)                       : 6 channels
Channel positions                : Front: L C R, Surround: L R, LFE
Sampling rate                    : 48.0 KHz
Resolution                       : 24 bits

Audio #2
ID                               : 4353 (0x1101)
Menu ID                          : 1 (0x1)
Format                           : AC-3
Format/Info                      : Audio Coding 3
Duration                         : 1h 32mn
Bit rate mode                    : Constant
Bit rate                         : 448 Kbps
Channel(s)                       : 6 channels
Channel positions                : Front: L C R, Surround: L R, LFE
Sampling rate                    : 48.0 KHz
Stream size                      : 295 MiB (2%)

Audio #3
ID                               : 4354 (0x1102)
Menu ID                          : 1 (0x1)
Format                           : AC-3
Format/Info                      : Audio Coding 3
Duration                         : 1h 32mn
Bit rate mode                    : Constant
Bit rate                         : 640 Kbps
Channel(s)                       : 6 channels
Channel positions                : Front: L C R, Surround: L R, LFE
Sampling rate                    : 48.0 KHz
Stream size                      : 422 MiB (2%)

Audio #4
ID                               : 4355 (0x1103)
Menu ID                          : 1 (0x1)
Format                           : AC-3
Format/Info                      : Audio Coding 3
Duration                         : 1h 32mn
Bit rate mode                    : Constant
Bit rate                         : 224 Kbps
Channel(s)                       : 2 channels
Channel positions                : L R
Sampling rate                    : 48.0 KHz
Stream size                      : 148 MiB (1%)

Text #1
ID                               : 4608 (0x1200)
Menu ID                          : 1 (0x1)
Format                           : PGS

Text #2
ID                               : 4609 (0x1201)
Menu ID                          : 1 (0x1)
Format                           : PGS

Text #3
ID                               : 4610 (0x1202)
Menu ID                          : 1 (0x1)
Format                           : PGS

Text #4
ID                               : 4611 (0x1203)
Menu ID                          : 1 (0x1)
Format                           : PGS
====================================================
Перевозчик 2 / Le Transporteur II / Transporter 2 (2005)

Можно снести всё и оставить основной файл, я ещё убил лишние дороги.



Описание    Бывший спецназовец Фрэнк Мартин осел на берегу Средиземного моря и занялся своим любимым делом - перевозками. Но старый друг попросил его поработать водителем месяц в семье Биллингс. Глава семьи мистер Биллингс - большая шишка в деле борьбы с торговлей наркотиками. И однажды боевики наркомафии похищают сынишку Биллингса. Мартину приходится снова использовать свои прежние навыки, чтобы вернуть мальчика, а также раскрыть хитрый план похитителей, который состоял не только в получении денежного выкупа.

Дополнительно    CEE - Central Eastern Europe original release

Бонусы:
   * Удаленные сцены
   * Неудачные дубли
   * Создание музыки
   * Съёмки фильма "Перевозчик 2"

Год    2005
Страна    Europa Corp., TF1 Films Production (США,Франция)
Жанр    Боевик, триллер, криминал
Продолжительность    1:27:38
Перевод    Профессиональный (полное дублирование)
Режиссер    Луи Летерье /Louis Leterrier/
В ролях    Джейсон Стэтхэм /Jason Statham/, Эмбер Валлетта /Amber Valletta/, Хантер Клари /Hunter Clary/, Джефф Чейз /Jeff Chase/, Франсуа Берлеан /François Berléand/, Кит Дэвид /Keith David/
Качество    BD
Видео    1920х1080p, MPEG-2, ~ 30.00 Mbit/sec
Аудио    Русский DTS 5.1, 768 kbps; Английский DTS-HD Lossless Master Audio 5.1; Португальский DTS 5.1; Испанский DTS 5.1; Венгерский; Чешский; Польский; Турецкий - Dolby Digital 5.1, 448 kbps
Субтитры   
Контейнер    Другой
Редактирован    2009-01-14 21:14:33
IMDB    Перейти
Тема на форуме    Перейти
Тип    HD DVD/BD
Раздающий    Последний раз был здесь 1:03 назад
Размер    22.74 GB (24,418,492,000 байт)

http://hdtracker.ru/details.php?id=3140

mediainfo:

General
ID                               : 0
Complete name                    : N:\hd films\TRANSPORTER2_HD_disk\BDMV\STREAM\00000.m2ts
Format                           : BDAV
Format/Info                      : BluRay Video
File size                        : 19.6 GiB
Duration                         : 1h 27mn
Overall bit rate                 : 31.9 Mbps
Maximum Overall bit rate         : 48.0 Mbps

Video
ID                               : 4113 (0x1011)
Menu ID                          : 1 (0x1)
Format                           : MPEG Video
Format version                   : Version 2
Format profile                   : Main@High
Format settings, Matrix          : Default
Duration                         : 1h 27mn
Bit rate mode                    : Variable
Bit rate                         : 23.6 Mbps
Nominal bit rate                 : 30.0 Mbps
Width                            : 1 920 pixels
Height                           : 1 080 pixels
Display aspect ratio             : 16/9
Frame rate                       : 23.976 fps
Colorimetry                      : 4:2:0
Scan type                        : Progressive
Bits/(Pixel*Frame)               : 0.474
Stream size                      : 14.4 GiB (74%)

Audio #1
ID                               : 4352 (0x1100)
Menu ID                          : 1 (0x1)
Format                           : DTS
Format/Info                      : Digital Theater Systems
Format profile                   : HRA
Duration                         : 1h 27mn
Bit rate mode                    : Constant
Bit rate                         : 3 019 Kbps
Channel(s)                       : 6 channels
Channel positions                : Front: L C R, Surround: L R, LFE
Sampling rate                    : 48.0 KHz
Resolution                       : 24 bits
Stream size                      : 1.85 GiB (9%)

Audio #2
ID                               : 4353 (0x1101)
Menu ID                          : 1 (0x1)
Format                           : DTS
Format/Info                      : Digital Theater Systems
Duration                         : 1h 27mn
Bit rate mode                    : Constant
Bit rate                         : 755 Kbps
Channel(s)                       : 6 channels
Channel positions                : Front: L C R, Surround: L R, LFE
Sampling rate                    : 48.0 KHz
Resolution                       : 16 bits
Stream size                      : 473 MiB (2%)

Audio #3
ID                               : 4354 (0x1102)
Menu ID                          : 1 (0x1)
Format                           : DTS
Format/Info                      : Digital Theater Systems
Duration                         : 1h 27mn
Bit rate mode                    : Constant
Bit rate                         : 755 Kbps
Channel(s)                       : 6 channels
Channel positions                : Front: L C R, Surround: L R, LFE
Sampling rate                    : 48.0 KHz
Resolution                       : 16 bits
Stream size                      : 473 MiB (2%)

Audio #4
ID                               : 4355 (0x1103)
Menu ID                          : 1 (0x1)
Format                           : DTS
Format/Info                      : Digital Theater Systems
Duration                         : 1h 27mn
Bit rate mode                    : Constant
Bit rate                         : 755 Kbps
Channel(s)                       : 6 channels
Channel positions                : Front: L C R, Surround: L R, LFE
Sampling rate                    : 48.0 KHz
Resolution                       : 24 bits
Stream size                      : 473 MiB (2%)

Audio #5
ID                               : 4356 (0x1104)
Menu ID                          : 1 (0x1)
Format                           : AC-3
Format/Info                      : Audio Coding 3
Duration                         : 1h 27mn
Bit rate mode                    : Constant
Bit rate                         : 448 Kbps
Channel(s)                       : 6 channels
Channel positions                : Front: L C R, Surround: L R, LFE
Sampling rate                    : 48.0 KHz
Stream size                      : 281 MiB (1%)

Audio #6
ID                               : 4357 (0x1105)
Menu ID                          : 1 (0x1)
Format                           : AC-3
Format/Info                      : Audio Coding 3
Duration                         : 1h 27mn
Bit rate mode                    : Constant
Bit rate                         : 448 Kbps
Channel(s)                       : 6 channels
Channel positions                : Front: L C R, Surround: L R, LFE
Sampling rate                    : 48.0 KHz
Stream size                      : 281 MiB (1%)

Audio #7
ID                               : 4358 (0x1106)
Menu ID                          : 1 (0x1)
Format                           : AC-3
Format/Info                      : Audio Coding 3
Duration                         : 1h 27mn
Bit rate mode                    : Constant
Bit rate                         : 448 Kbps
Channel(s)                       : 6 channels
Channel positions                : Front: L C R, Surround: L R, LFE
Sampling rate                    : 48.0 KHz
Stream size                      : 281 MiB (1%)

Audio #8
ID                               : 4359 (0x1107)
Menu ID                          : 1 (0x1)
Format                           : AC-3
Format/Info                      : Audio Coding 3
Duration                         : 1h 27mn
Bit rate mode                    : Constant
Bit rate                         : 448 Kbps
Channel(s)                       : 6 channels
Channel positions                : Front: L C R, Surround: L R, LFE
Sampling rate                    : 48.0 KHz
Stream size                      : 281 MiB (1%)

Text #1
ID                               : 4608 (0x1200)
Menu ID                          : 1 (0x1)
Format                           : PGS

Text #2
ID                               : 4609 (0x1201)
Menu ID                          : 1 (0x1)
Format                           : PGS

Text #3
ID                               : 4610 (0x1202)
Menu ID                          : 1 (0x1)
Format                           : PGS

Text #4
ID                               : 4611 (0x1203)
Menu ID                          : 1 (0x1)
Format                           : PGS

Text #5
ID                               : 4612 (0x1204)
Menu ID                          : 1 (0x1)
Format                           : PGS

Text #6
ID                               : 4613 (0x1205)
Menu ID                          : 1 (0x1)
Format                           : PGS

Text #7
ID                               : 4614 (0x1206)
Menu ID                          : 1 (0x1)
Format                           : PGS

Text #8
ID                               : 4615 (0x1207)
Menu ID                          : 1 (0x1)
Format                           : PGS

Text #9
ID                               : 4616 (0x120
Menu ID                          : 1 (0x1)
Format                           : PGS

Text #10
ID                               : 4617 (0x1209)
Menu ID                          : 1 (0x1)
Format                           : PGS

Text #11
ID                               : 4618 (0x120A)
Menu ID                          : 1 (0x1)
Format                           : PGS

Text #12
ID                               : 4619 (0x120B)
Menu ID                          : 1 (0x1)
Format                           : PGS

Text #13
ID                               : 4620 (0x120C)
Menu ID                          : 1 (0x1)
Format                           : PGS

Text #14
ID                               : 4621 (0x120D)
Menu ID                          : 1 (0x1)
Format                           : PGS

Text #15
ID                               : 4622 (0x120E)
Menu ID                          : 1 (0x1)
Format                           : PGS

Text #16
ID                               : 4623 (0x120F)
Menu ID                          : 1 (0x1)
Format                           : PGS

Text #17
ID                               : 4624 (0x1210)
Menu ID                          : 1 (0x1)
Format                           : PGS

Text #18
ID                               : 4625 (0x1211)
Menu ID                          : 1 (0x1)
Format                           : PGS

Text #19
ID                               : 4626 (0x1212)
Menu ID                          : 1 (0x1)
Format                           : PGS

Text #20
ID                               : 4627 (0x1213)
Menu ID                          : 1 (0x1)
Format                           : PGS

Text #21
ID                               : 4628 (0x1214)
Menu ID                          : 1 (0x1)
Format                           : PGS

Text #22
ID                               : 4629 (0x1215)
Menu ID                          : 1 (0x1)
Format                           : PGS

Text #23
ID                               : 4630 (0x1216)
Menu ID                          : 1 (0x1)
Format                           : PGS

Text #24
ID                               : 4631 (0x1217)
Menu ID                          : 1 (0x1)
Format                           : PGS

Text #25
ID                               : 4632 (0x121
Menu ID                          : 1 (0x1)
Format                           : PGS

Text #26
ID                               : 4633 (0x1219)
Menu ID                          : 1 (0x1)
Format                           : PGS

Text #27
ID                               : 4634 (0x121A)
Menu ID                          : 1 (0x1)
Format                           : PGS

Text #28
ID                               : 4635 (0x121B)
Menu ID                          : 1 (0x1)
Format                           : PGS

Text #29
ID                               : 4636 (0x121C)
Menu ID                          : 1 (0x1)
Format                           : PGS

Text #30
ID                               : 4637 (0x121D)
Menu ID                          : 1 (0x1)
Format                           : PGS

Text #31
ID                               : 4638 (0x121E)
Menu ID                          : 1 (0x1)
Format                           : PGS

Text #32
ID                               : 4639 (0x121F)
Menu ID                          : 1 (0x1)
Format                           : PGS
====================================================
__________________
REMUX FOREVER

Watching HD on: LCD Sharp 46XL2E, Yamaha RX-V563, Yamaha NS-777, Yamaha NS-333, Yamaha NS-444, Yamaha YST-SW215, WD TV, My Book EE 1 TB (3), HP SE 1.5 ТБ (1)|| DVD watching on: Yamaha DVD-S663|| DVD-Audio, SACD: Onkyo DV-SP504E
Написано:  28 Июл 2009 21:04   Отредактировано: NetSearcher
Перевозчик 3 / Transporter 3 ( 2008 ) Blu-ray Remux



Информация о фильме
Название: Перевозчик 3
Оригинальное название: Transporter 3
Год выхода: 2008
Жанр: Боевик, триллер
Режисcер: Оливье Мегатон
В ролях: Джейсон Стэтхэм, Наталья Рудакова, Франсуа Берлеан, Роберт Нэппер, Ерун Краббе, Алекс Коболд, Дэвид Атракчи, Ян Сандберг, Эрик Эбони, Дэвид Камменос

О фильме:
После своих последних приключений в Майами, Фрэнк Мартин решил поменять работу «перевозчика» на спокойную и уединенную жизнь во французской Ривьере. Но его планам не суждено было сбыться, когда к нему обратился бывший солдат из отряда «Дельта» Йонас Джонсон. Он рассказал, что по заказу корпорации «Ecocorp», занимающейся переработкой и утилизацией отходов, похищена Валентина — дочь украинского министра по охране окружающей среды Леонида Фазилева — чтобы путем вымогательства получить официальное разрешение для утилизации ядовитых отходов в Украине. Теперь задача героя — доставить Валентину через Европу в Одессу. Чтобы обеспечить выполнение задания, Джонсон одевает Фрэнку и Валентине электронные браслеты, которые могут взорваться, если их обладатели удаляются на 20 метров от автомобиля. Выполняя это задание, главному герою придется столкнуться с новыми опасностями, которые связаны не только с его заказом…



Качество: Blu-ray Remux
Видео: H.264/AVC, NTSC 23.976, 1920 x 1080, 16 948 кбит/с
Звук #1: Русский (Дублированный), DTS, 6ch (L, C, R, Ls, Rs +LFE), 768 кбит/с |Лицензия|
Звук #2: Украинский (Дублированный), AC3, 6ch (L, C, R, Ls, Rs +LFE), 448 кбит/с *
Звук #3: Английский (Оригинал), DTS-HD MА, 8ch (L,C,R, Ls, Rs, Lb, Rb +LFE), 5254
Субтитры: Русский, Английский, Украинские**

http://tracker.0day.kiev.ua/details.php?id=47676

mediainfo:

General
ID                               : 1
Complete name                    : N:\hd films\Transporter_3\BDMV\STREAM\00001.m2ts
Format                           : BDAV
Format/Info                      : BluRay Video
File size                        : 18.0 GiB
Duration                         : 1h 43mn
Overall bit rate                 : 24.8 Mbps
Maximum Overall bit rate         : 35.5 Mbps

Video
ID                               : 4113 (0x1011)
Menu ID                          : 1 (0x1)
Format                           : AVC
Format/Info                      : Advanced Video Codec
Format profile                   : High@L4.1
Format settings, CABAC           : Yes
Format settings, ReFrames        : 4 frames
Duration                         : 1h 43mn
Width                            : 1 920 pixels
Height                           : 1 080 pixels
Display aspect ratio             : 16/9
Frame rate                       : 23.976 fps
Resolution                       : 24 bits
Colorimetry                      : 4:2:0
Scan type                        : Progressive

Audio #1
ID                               : 4352 (0x1100)
Menu ID                          : 1 (0x1)
Format                           : DTS
Format/Info                      : Digital Theater Systems
Duration                         : 1h 43mn
Bit rate mode                    : Constant
Bit rate                         : 755 Kbps
Channel(s)                       : 6 channels
Channel positions                : Front: L C R, Surround: L R, LFE
Sampling rate                    : 48.0 KHz
Resolution                       : 24 bits
Stream size                      : 561 MiB (3%)
Language                         : Russian

Audio #2
ID                               : 4353 (0x1101)
Menu ID                          : 1 (0x1)
Format                           : AC-3
Format/Info                      : Audio Coding 3
Duration                         : 1h 43mn
Bit rate mode                    : Constant
Bit rate                         : 448 Kbps
Channel(s)                       : 6 channels
Channel positions                : Front: L C R, Surround: L R, LFE
Sampling rate                    : 48.0 KHz
Stream size                      : 333 MiB (2%)
Language                         : Ukrainian

Audio #3
ID                               : 4354 (0x1102)
Menu ID                          : 1 (0x1)
Format                           : DTS
Format/Info                      : Digital Theater Systems
Format profile                   : MA
Duration                         : 1h 43mn
Bit rate mode                    : Variable
Channel(s)                       : 8 channels
Channel positions                : Front: L C R, Surround: L C C R, LFE
Sampling rate                    : 48.0 KHz
Resolution                       : 24 bits

Text #1
ID                               : 4608 (0x1200)
Menu ID                          : 1 (0x1)
Format                           : PGS
Language                         : Russian

Text #2
ID                               : 4609 (0x1201)
Menu ID                          : 1 (0x1)
Format                           : PGS
Language                         : English
__________________
REMUX FOREVER

Watching HD on: LCD Sharp 46XL2E, Yamaha RX-V563, Yamaha NS-777, Yamaha NS-333, Yamaha NS-444, Yamaha YST-SW215, WD TV, My Book EE 1 TB (3), HP SE 1.5 ТБ (1)|| DVD watching on: Yamaha DVD-S663|| DVD-Audio, SACD: Onkyo DV-SP504E
Написано:  07 Авг 2009 14:16
touch, а touch размести в базу

ты так и не придумал способа добавления - другими пользователями?
__________________
REMUX FOREVER

Watching HD on: LCD Sharp 46XL2E, Yamaha RX-V563, Yamaha NS-777, Yamaha NS-333, Yamaha NS-444, Yamaha YST-SW215, WD TV, My Book EE 1 TB (3), HP SE 1.5 ТБ (1)|| DVD watching on: Yamaha DVD-S663|| DVD-Audio, SACD: Onkyo DV-SP504E
Написано:  07 Авг 2009 20:54
ага, сделаю! )
да в-общем придумал.. нужно только придумать, как запаролить там всё, чтобы не все могли постить.. тож сделаем )
__________________
Где купить WD TV: Live Streaming
Написано:  07 Авг 2009 22:51
типо релизеры
__________________
REMUX FOREVER

Watching HD on: LCD Sharp 46XL2E, Yamaha RX-V563, Yamaha NS-777, Yamaha NS-333, Yamaha NS-444, Yamaha YST-SW215, WD TV, My Book EE 1 TB (3), HP SE 1.5 ТБ (1)|| DVD watching on: Yamaha DVD-S663|| DVD-Audio, SACD: Onkyo DV-SP504E

Поделитесь со своими друзьями в соцсетях:

WDTV Forum / Форум про HD фильмы / Эти фильмы играются / Перевозчик 1, 2, 3 1080p remux