Неофициальный клуб пользователей HD видео плеера WD TV


»Юзер: »Пароль:   Запомнить? 
WDTV Forum / Форум про WD TV Live Hub / Опыт эксплуатации / Перестал воспроизводить mkv!!!
Написано:  26 Окт 2011 18:49
Плеер перестал воспроизводить видеофайлы .mkv
Выдает ошибку, что формат не поддерживается.
Не читает файлы .mkv ни на встроенном диске, ни на компьютере по сети.
Прошивка последняя (2.08.13), делали сброс настроек.
Подскажите возможные варианты решения проблемы.
Спасибо!
Написано:  26 Окт 2011 18:55
Попробывать если только по русски назван добавить на английском,а с компа по сети до этого воспроизводил ? Система не переустанавливалась на компе ?
__________________
Sharp LC-32X20RU + WDTV Gen2 + WDTV Live (если понравилось 41001352107159 яндекс)
Написано:  26 Окт 2011 19:08
на компе изменений не было... Раньше не было надобности читать с компа - все читалось без проблем...
А что значит: "Попробывать если только по русски назван добавить на английском"?
Файл, действительно, переименовал на русский, для удобства...
Написано:  26 Окт 2011 19:11
добавить на английском вначале пару букв и перепроверить .
__________________
Sharp LC-32X20RU + WDTV Gen2 + WDTV Live (если понравилось 41001352107159 яндекс)
Написано:  26 Окт 2011 19:13
попробовал... не помогло...
Написано:  26 Окт 2011 20:23
Общее
Уникальный идентификатор         : 252406183838490242858863069151236249131 (0xBDE3A9AAA8CE7924A4C9E642D270D62B)
Полное имя                       : Y:\Sample Media\Video\AVATAR.mkv
Формат                           : Matroska
Версия формата                   : Version 2
Размер файла                     : 31,8 Гбайт
Продолжительность                : 2 ч. 41 м.
Общий поток                      : 28,2 Мбит/сек
Дата кодирования                 : UTC 2010-11-09 10:51:56
Программа кодирования            : mkvmerge v2.9.7 ('Tenderness') built on Jul  1 2009 18:43:35
Библиотека кодирования           : libebml v0.7.7 + libmatroska v0.8.1

Видео
Идентификатор                    : 1
Формат                           : AVC
Формат/Информация                : Advanced Video Codec
Профиль формата                  : High@L5.0
Параметр CABAC формата           : Да
Параметр ReFrames формата        : 4 кадра
Идентификатор кодека             : V_MPEG4/ISO/AVC
Продолжительность                : 2 ч. 41 м.
Битрейт                          : 26,4 Мбит/сек
Ширина                           : 1920 пикселей
Высота                           : 2160 пикселей
Соотношение сторон               : 0,889
Частота кадров                   : 23,976 кадра/сек
Цветовое пространство            : YUV
Субдискретизация насыщенности    : 4:2:0
Битовая глубина                  : 8 бит
Тип развёртки                    : Прогрессивная
Бит/(Пиксели*Кадры)              : 0.265
Размер потока                    : 29,8 Гбайт (93%)
Библиотека кодирования           : x264 core 107 r1745+311 2317302
Настройки программы              : cabac=1 / ref=4 / deblock=1:-3:-3 / analyse=0x3:0x113 / me=umh / subme=7 / psy=1 / fade_compensate=0.00 / psy_rd=1.00:0.15 / mixed_ref=1 / me_range=16 / chroma_me=1 / trellis=2 / 8x8dct=1 / cqm=0 / deadzone=21,11 / fast_pskip=1 / chroma_qp_offset=-3 / threads=6 / sliced_threads=0 / nr=0 / decimate=1 / interlaced=0 / constrained_intra=0 / fgo=0 / bframes=6 / b_pyramid=0 / b_adapt=2 / b_bias=0 / direct=3 / weightb=1 / open_gop=0 / weightp=2 / keyint=250 / keyint_min=23 / scenecut=40 / intra_refresh=0 / rc_lookahead=40 / rc=crf / mbtree=1 / crf=18.0 / qcomp=0.60 / qpmin=10 / qpmax=51 / qpstep=4 / ip_ratio=1.40 / aq=1:1.00
Язык                             : English

Аудио #1
Идентификатор                    : 2
Формат                           : AC-3
Формат/Информация                : Audio Coding 3
Расширение режима                : CM (complete main)
Идентификатор кодека             : A_AC3
Продолжительность                : 2 ч. 41 м.
Вид битрейта                     : Постоянный
Битрейт                          : 640 Кбит/сек
Каналы                           : 6 каналов
Расположение каналов             : Front: L C R, Side: L R, LFE
Частота                          : 48,0 КГц
Битовая глубина                  : 16 бит
Метод сжатия                     : С потерями
Размер потока                    : 740 Мбайт (2%)
Язык                             : Russian

Аудио #2
Идентификатор                    : 3
Формат                           : AC-3
Формат/Информация                : Audio Coding 3
Расширение режима                : CM (complete main)
Идентификатор кодека             : A_AC3
Продолжительность                : 2 ч. 41 м.
Вид битрейта                     : Постоянный
Битрейт                          : 640 Кбит/сек
Каналы                           : 6 каналов
Расположение каналов             : Front: L C R, Side: L R, LFE
Частота                          : 48,0 КГц
Битовая глубина                  : 16 бит
Метод сжатия                     : С потерями
Размер потока                    : 740 Мбайт (2%)
Язык                             : English

Текст
Идентификатор                    : 4
Формат                           : UTF-8
Идентификатор кодека             : S_TEXT/UTF8
Идентификатор кодека/Информация  : UTF-8 Plain Text
Язык                             : Russian

Меню
00:00:00.000                     : en:1. A New World
00:06:17.961                     : en:2. You Are Not In Kansas Anymore
00:07:53.598                     : en:3. "This is Your Avatar Now, Jake"
00:12:04.891                     : en:4. "This Is Why We're Here..."
00:14:00.465                     : en:5. First Awakening
00:20:00.574                     : en:6. Colonel Quaritch
00:24:00.230                     : en:7. First Sortie
00:26:53.278                     : en:8. Thanator Chase
00:31:41.900                     : en:9. A Sign
00:33:33.428                     : en:10. Viperwolves
00:35:43.850                     : en:11. Neytiri
00:43:31.859                     : en:12. The Omaticaya Clan
00:49:23.627                     : en:13. Covert Report
00:54:29.975                     : en:14. The Hallelujah Mountains
00:59:56.051                     : en:15. Learn Fast or Die
01:05:10.198                     : en:16. Banshee Rookery
01:11:36.417                     : en:17. First Flight
01:15:11.006                     : en:18. Last Shadow
01:20:29.116                     : en:19. A Son of the Omaticaya
01:24:41.910                     : en:20. Willow Glade Destruction
01:36:04.801                     : en:21. "You Will Never Be One of the People"
01:37:55.786                     : en:22. Assault on Home Tree
01:44:33.100                     : en:23. Aftermath
01:48:15.489                     : en:24. Escape From Hell's Gate
01:53:53.868                     : en:25. "There's Something We Gotta Do..."
01:55:32.884                     : en:26. Toruk Macto
01:58:38.820                     : en:27. "She's Real"
02:02:05.568                     : en:28. Recruiting the Clans
02:05:33.859                     : en:29. Preamble to Battle
02:10:01.835                     : en:30. Battle For Pandora
02:16:07.284                     : en:31. Fall of the Heroes
02:19:50.841                     : en:32. Eywa
02:25:50.325                     : en:33. Quaritch Fight
02:31:14.065                     : en:34. "I See You"
02:35:05.296                     : en:35. End Credits
Написано:  26 Окт 2011 20:54
Ну попробуйте ему еще резет кнопочкой снизу сделать ,если не поможе то наверно в магаз по гарантии .
__________________
Sharp LC-32X20RU + WDTV Gen2 + WDTV Live (если понравилось 41001352107159 яндекс)

Поделитесь со своими друзьями в соцсетях:

WDTV Forum / Форум про WD TV Live Hub / Опыт эксплуатации / Перестал воспроизводить mkv!!!