Неофициальный клуб пользователей HD видео плеера WD TV


»Юзер: »Пароль:   Запомнить? 
Написано:  26 Окт 2011 03:40
Помогите разобраться... При проигрывании MKV (не всех)почти в конце фильма начинает подтормаживать, как будто приостанавливается на доли секунды... Смотреть это просто невозможно, по этому прошу помощи в решении данного вопроса....
Плеер WD Elements play 2tb, куплен недавно, прошивка 1.01.12.
Написано:  26 Окт 2011 04:18
Вот несколько файлов

Общее
Уникальный идентификатор         : 227643476317799498454555019982459015090 (0xAB4289ECBB4209BC814C5B33774E8FB2)
Полное имя                       : H:\Мультики\Волли.mkv
Формат                           : Matroska
Версия формата                   : Version 2
Размер файла                     : 7,81 Гбайт
Продолжительность                : 1 ч. 38 м.
Общий поток                      : 11,3 Мбит/сек
Название фильма                  : WALL·E (200 1080p BDRip - HDv0T / Panda
Дата кодирования                 : UTC 2009-12-27 20:44:09
Программа кодирования            : mkvmerge v2.9.9 ('Tutu' built on Nov 25 2009 21:13:32
Библиотека кодирования           : libebml v0.7.9 + libmatroska v0.8.1

Видео
Идентификатор                    : 1
Формат                           : AVC
Формат/Информация                : Advanced Video Codec
Профиль формата                  : High@L4.1
Параметр CABAC формата           : Да
Параметр ReFrames формата        : 4 кадра
Идентификатор кодека             : V_MPEG4/ISO/AVC
Продолжительность                : 1 ч. 38 м.
Битрейт                          : 8350 Кбит/сек
Ширина                           : 1920 пикселей
Высота                           : 802 пикселя
Соотношение сторон               : 2,40:1
Частота кадров                   : 23,976 кадра/сек
Цветовое пространство            : YUV
Субдискретизация насыщенности    : 4:2:0
Битовая глубина                  : 8 бит
Тип развёртки                    : Прогрессивная
Бит/(Пиксели*Кадры)              : 0.226
Размер потока                    : 5,60 Гбайт (72%)
Заголовок                        : WALL·E (200 1080p BDRip - HDv0T
Библиотека кодирования           : x264 core 80 r1376M 3feaec2
Настройки программы              : cabac=1 / ref=4 / deblock=1:-3:-3 / analyse=0x3:0x113 / me=umh / subme=9 / psy=1 / psy_rd=0.8:0.0 / mixed_ref=1 / me_range=24 / chroma_me=0 / trellis=1 / 8x8dct=1 / cqm=0 / deadzone=21,11 / fast_pskip=0 / chroma_qp_offset=-2 / threads=3 / sliced_threads=0 / nr=0 / decimate=1 / mbaff=0 / constrained_intra=0 / bframes=3 / b_pyramid=0 / b_adapt=2 / b_bias=0 / direct=3 / wpredb=0 / wpredp=2 / keyint=250 / keyint_min=25 / scenecut=40 / rc_lookahead=40 / rc=2pass / mbtree=1 / bitrate=8350 / ratetol=1.0 / qcomp=0.60 / qpmin=10 / qpmax=51 / qpstep=4 / cplxblur=20.0 / qblur=0.5 / ip_ratio=1.40 / aq=1:0.60
Язык                             : Russian

Аудио #1
Идентификатор                    : 2
Формат                           : AC-3
Формат/Информация                : Audio Coding 3
Расширение режима                : CM (complete main)
Идентификатор кодека             : A_AC3
Продолжительность                : 1 ч. 38 м.
Вид битрейта                     : Постоянный
Битрейт                          : 640 Кбит/сек
Каналы                           : 6 каналов
Расположение каналов             : Front: L C R, Side: L R, LFE
Частота                          : 48,0 КГц
Битовая глубина                  : 16 бит
Метод сжатия                     : С потерями
Размер потока                    : 452 Мбайт (6%)
Заголовок                        : Русский дубляж (Невафиьм) AC3 5.1 @ 640 кбит/с
Язык                             : Russian

Аудио #2
Идентификатор                    : 3
Формат                           : AC-3
Формат/Информация                : Audio Coding 3
Расширение режима                : CM (complete main)
Идентификатор кодека             : A_AC3
Продолжительность                : 1 ч. 38 м.
Вид битрейта                     : Постоянный
Битрейт                          : 448 Кбит/сек
Каналы                           : 6 каналов
Расположение каналов             : Front: L C R, Side: L R, LFE
Частота                          : 48,0 КГц
Битовая глубина                  : 16 бит
Метод сжатия                     : С потерями
Размер потока                    : 316 Мбайт (4%)
Заголовок                        : Украинский дубляж AC3 5.1 @ 448 кбит/с
Язык                             : Ukrainian

Аудио #3
Идентификатор                    : 4
Формат                           : DTS
Формат/Информация                : Digital Theater Systems
Профиль формата                  : ES
Идентификатор кодека             : A_DTS
Продолжительность                : 1 ч. 38 м.
Вид битрейта                     : Постоянный
Битрейт                          : 1510 Кбит/сек
Каналы                           : 6 каналов
Расположение каналов             : Front: L C R, Side: L R, LFE
Частота                          : 48,0 КГц
Битовая глубина                  : 24 бит
Метод сжатия                     : С потерями
Размер потока                    : 1,04 Гбайт (13%)
Заголовок                        : Английский (Оригинал) DTS 5.1 @ 1536 кбит/с
Язык                             : English

Аудио #4
Идентификатор                    : 5
Формат                           : AC-3
Формат/Информация                : Audio Coding 3
Профиль формата                  : Dolby Digital
Расширение режима                : CM (complete main)
Идентификатор кодека             : A_AC3
Продолжительность                : 1 ч. 38 м.
Вид битрейта                     : Постоянный
Битрейт                          : 192 Кбит/сек
Каналы                           : 2 канала
Расположение каналов             : Front: L R
Частота                          : 48,0 КГц
Битовая глубина                  : 16 бит
Метод сжатия                     : С потерями
Размер потока                    : 136 Мбайт (2%)
Заголовок                        : Русский (один голос) - комментарий реж. AC3 2.0 @ 192 кбит/с
Язык                             : Russian

Аудио #5
Идентификатор                    : 6
Формат                           : AC-3
Формат/Информация                : Audio Coding 3
Профиль формата                  : Dolby Digital
Расширение режима                : CM (complete main)
Идентификатор кодека             : A_AC3
Продолжительность                : 1 ч. 38 м.
Вид битрейта                     : Постоянный
Битрейт                          : 192 Кбит/сек
Каналы                           : 2 канала
Расположение каналов             : Front: L R
Частота                          : 48,0 КГц
Битовая глубина                  : 16 бит
Метод сжатия                     : С потерями
Размер потока                    : 136 Мбайт (2%)
Заголовок                        : Английский (комментарии создателей) AC3 2.0 @ 192 кбит/с
Язык                             : English

Текст #1
Идентификатор                    : 7
Формат                           : UTF-8
Идентификатор кодека             : S_TEXT/UTF8
Идентификатор кодека/Информация  : UTF-8 Plain Text
Заголовок                        : Русский_srt
Язык                             : Russian

Текст #2
Идентификатор                    : 8
Формат                           : ASS
Идентификатор кодека             : S_TEXT/ASS
Идентификатор кодека/Информация  : Advanced Sub Station Alpha
Метод сжатия                     : Без потерь
Заголовок                        : Русский_ass
Язык                             : Russian

Текст #3
Идентификатор                    : 9
Формат                           : UTF-8
Идентификатор кодека             : S_TEXT/UTF8
Идентификатор кодека/Информация  : UTF-8 Plain Text
Заголовок                        : Украинский_srt
Язык                             : Ukrainian

Текст #4
Идентификатор                    : 10
Формат                           : ASS
Идентификатор кодека             : S_TEXT/ASS
Идентификатор кодека/Информация  : Advanced Sub Station Alpha
Метод сжатия                     : Без потерь
Заголовок                        : Украинский_ass
Язык                             : Ukrainian

Текст #5
Идентификатор                    : 11
Формат                           : UTF-8
Идентификатор кодека             : S_TEXT/UTF8
Идентификатор кодека/Информация  : UTF-8 Plain Text
Заголовок                        : Английский_srt
Язык                             : English

Текст #6
Идентификатор                    : 12
Формат                           : ASS
Идентификатор кодека             : S_TEXT/ASS
Идентификатор кодека/Информация  : Advanced Sub Station Alpha
Метод сжатия                     : Без потерь
Заголовок                        : Английский_ass
Язык                             : English

Текст #7
Идентификатор                    : 13
Формат                           : UTF-8
Идентификатор кодека             : S_TEXT/UTF8
Идентификатор кодека/Информация  : UTF-8 Plain Text
Заголовок                        : Английский SDH
Язык                             : English

Текст #8
Идентификатор                    : 14
Формат                           : UTF-8
Идентификатор кодека             : S_TEXT/UTF8
Идентификатор кодека/Информация  : UTF-8 Plain Text
Заголовок                        : Русский (комментарии создателей)_srt
Язык                             : Russian

Текст #9
Идентификатор                    : 15
Формат                           : ASS
Идентификатор кодека             : S_TEXT/ASS
Идентификатор кодека/Информация  : Advanced Sub Station Alpha
Метод сжатия                     : Без потерь
Заголовок                        : Русский (комментарии создателей)_ass
Язык                             : Russian

Меню
00:00:00.000                     : en:00:00:00.000
00:03:36.299                     : en:00:03:36.299
00:05:49.683                     : en:00:05:49.683
00:09:18.766                     : en:00:09:18.766
00:12:03.431                     : en:00:12:03.431
00:17:56.450                     : en:00:17:56.450
00:19:33.380                     : en:00:19:33.380
00:21:10.144                     : en:00:21:10.144
00:23:46.800                     : en:00:23:46.800
00:29:18.006                     : en:00:29:18.006
00:31:25.091                     : en:00:31:25.091
00:33:27.756                     : en:00:33:27.756
00:35:20.118                     : en:00:35:20.118
00:38:49.535                     : en:00:38:49.535
00:42:53.529                     : en:00:42:53.529
00:43:31.651                     : en:00:43:31.651
00:51:08.941                     : en:00:51:08.941
00:52:07.583                     : en:00:52:07.583
00:54:47.451                     : en:00:54:47.451
00:56:05.779                     : en:00:56:05.779
00:57:58.016                     : en:00:57:58.016
00:58:41.184                     : en:00:58:41.184
01:02:14.898                     : en:01:02:14.898
01:03:21.047                     : en:01:03:21.047
01:05:49.695                     : en:01:05:49.695
01:11:44.884                     : en:01:11:44.884
01:15:54.216                     : en:01:15:54.216
01:19:22.799                     : en:01:19:22.799
01:20:14.684                     : en:01:20:14.684
01:24:14.090                     : en:01:24:14.090
01:25:45.765                     : en:01:25:45.765
01:30:17.495                     : en:01:30:17.495

Общее
Уникальный идентификатор         : 190977762091458122167506009507936155950 (0x8FACFAA47D22B799A9EA958AB9FD392E)
Полное имя                       : H:\Мультики\В поисках немо.HDTVRip.mkv
Формат                           : Matroska
Версия формата                   : Version 1
Размер файла                     : 4,25 Гбайт
Продолжительность                : 1 ч. 32 м.
Общий поток                      : 6604 Кбит/сек
Дата кодирования                 : UTC 2008-06-12 13:17:19
Программа кодирования            : mkvmerge v2.0.0 ('After The Rain Has Fallen' built on Jan 13 2007 19:58:56
Библиотека кодирования           : libebml v0.7.7 + libmatroska v0.8.0
Attachment                       : Yes / Yes

Видео
Идентификатор                    : 1
Формат                           : AVC
Формат/Информация                : Advanced Video Codec
Профиль формата                  : High@L5.1
Параметр CABAC формата           : Да
Параметр ReFrames формата        : 9 кадров
Идентификатор кодека             : V_MPEG4/ISO/AVC
Продолжительность                : 1 ч. 32 м.
Битрейт                          : 5460 Кбит/сек
Ширина                           : 1280 пикселей
Высота                           : 720 пикселей
Соотношение сторон               : 16:9
Частота кадров                   : 23,976 кадра/сек
Цветовое пространство            : YUV
Субдискретизация насыщенности    : 4:2:0
Битовая глубина                  : 8 бит
Тип развёртки                    : Прогрессивная
Бит/(Пиксели*Кадры)              : 0.247
Размер потока                    : 3,44 Гбайт (81%)
Заголовок                        : Finding Nemo
Библиотека кодирования           : x264 core 54 svn-627
Настройки программы              : cabac=1 / ref=6 / deblock=1:0:0 / analyse=0x3:0x133 / me=umh / subme=7 / brdo=1 / mixed_ref=1 / me_range=24 / chroma_me=1 / trellis=1 / 8x8dct=1 / cqm=2 / deadzone=21,11 / chroma_qp_offset=0 / threads=2 / nr=0 / decimate=0 / mbaff=0 / bframes=4 / b_pyramid=1 / b_adapt=1 / b_bias=0 / direct=1 / wpredb=1 / bime=1 / keyint=250 / keyint_min=25 / scenecut=40(pre) / rc=2pass / bitrate=5460 / ratetol=1.0 / rceq='blurCplx^(1-qComp)' / qcomp=0.60 / qpmin=10 / qpmax=51 / qpstep=4 / cplxblur=20.0 / qblur=0.5 / ip_ratio=1.40 / pb_ratio=1.30
Язык                             : English

Аудио #1
Идентификатор                    : 2
Формат                           : AC-3
Формат/Информация                : Audio Coding 3
Расширение режима                : CM (complete main)
Идентификатор кодека             : A_AC3
Продолжительность                : 1 ч. 32 м.
Вид битрейта                     : Постоянный
Битрейт                          : 384 Кбит/сек
Каналы                           : 6 каналов
Расположение каналов             : Front: L C R, Side: L R, LFE
Частота                          : 48,0 КГц
Битовая глубина                  : 16 бит
Метод сжатия                     : С потерями
Размер потока                    : 253 Мбайт (6%)
Заголовок                        : Russian
Язык                             : Russian

Аудио #2
Идентификатор                    : 3
Формат                           : DTS
Формат/Информация                : Digital Theater Systems
Идентификатор кодека             : A_DTS
Продолжительность                : 1 ч. 32 м.
Вид битрейта                     : Постоянный
Битрейт                          : 755 Кбит/сек
Каналы                           : 6 каналов
Расположение каналов             : Front: L C R, Side: L R, LFE
Частота                          : 48,0 КГц
Битовая глубина                  : 24 бит
Метод сжатия                     : С потерями
Размер потока                    : 498 Мбайт (11%)
Заголовок                        : English
Язык                             : English
Написано:  26 Окт 2011 08:07   Отредактировано: alukard
А на телику частоту для них пробыали переключать (50,60 Гц и тд) ,ну и можете еще потом просто в мквмерге переделать ,незабыв прочитать важно http://wdhd.ru/faq.php?q_id=13 .
пс хотя раз пишите что в конце только,то попробуйте с флешки или жесткого другого воспроизвести .
__________________
Sharp LC-32X20RU + WDTV Gen2 + WDTV Live (если понравилось 41001352107159 яндекс)

Поделитесь со своими друзьями в соцсетях: