Неофициальный клуб пользователей HD видео плеера WD TV


»Юзер: »Пароль:   Запомнить? 
WDTV Forum / Форум про WD TV Gen1 / Опыт эксплуатации / Нужна помощь! Звук отстает от видео!
Написано:  05 Сен 2011 12:40
Всем привет.
На последних фильмах, взятые из интернета, заметил что отстает звук, но на компьютере все хорошо.
Подскажите что можно сделать.
Спасибо

Код:

Общее
Полное имя                       : A:\Torrents\Krik_4_Dub_HDRip_by_Scarabey.avi
Формат                           : AVI
Формат/Информация                : Audio Video Interleave
Размер файла                     : 742 Мбайт
Продолжительность                : 1 ч. 50 м.
Общий поток                      : 938 Кбит/сек
Программа кодирования            : VirtualDubMod 1.5.10.2 (build 2540/release)
Библиотека кодирования           : VirtualDubMod build 2540/release

Видео
Идентификатор                    : 0
Формат                           : MPEG-4 Visual
Профиль формата                  : Advanced Simple@L5
Параметр BVOP формата            : 1
Параметр QPel формата            : Нет
Параметр GMC формата             : Без точки перехода
Параметр матрицы формата         : Выборочная
Идентификатор кодека             : XVID
Идентификатор кодека/Подсказка   : XviD
Продолжительность                : 1 ч. 50 м.
Битрейт                          : 801 Кбит/сек
Ширина                           : 688 пикселей
Высота                           : 288 пикселей
Соотношение сторон               : 2,40:1
Частота кадров                   : 24,000 кадра/сек
Цветовое пространство            : YUV
Субдискретизация насыщенности    : 4:2:0
Битовая глубина                  : 8 бит
Тип развёртки                    : Прогрессивная
Метод сжатия                     : С потерями
Бит/(Пиксели*Кадры)              : 0.168
Размер потока                    : 634 Мбайт (85%)
Библиотека кодирования           : XviD 1.2.1 (UTC 2008-12-04)

Аудио
Идентификатор                    : 1
Формат                           : MPEG Audio
Версия формата                   : Version 1
Профиль формата                  : Layer 3
Идентификатор кодека             : 55
Идентификатор кодека/Подсказка   : MP3
Продолжительность                : 1 ч. 50 м.
Вид битрейта                     : Постоянный
Битрейт                          : 128 Кбит/сек
Каналы                           : 2 канала
Частота                          : 48,0 КГц
Метод сжатия                     : С потерями
Размер потока                    : 101 Мбайт (14%)
Выравнивание                     : Соединение по промежуткам
Продолжительность промежутка     : 42  мс. (1,00 видеокадр)
Время предзагрузки промежутка    : 504  мс.
Библиотека кодирования           : LAME3.97
Настройки программы              : -m s -V 4 -q 2 -lowpass 17 -b 128

Написано:  06 Сен 2011 00:07
http://wdhd.ru/board/index.php?a=vtopic&t=2378
__________________
WD TV Gen 2 (LaCie v0.3) + DWA-140 (v1.71)

Поделитесь со своими друзьями в соцсетях:

WDTV Forum / Форум про WD TV Gen1 / Опыт эксплуатации / Нужна помощь! Звук отстает от видео!