Неофициальный клуб пользователей HD видео плеера WD TV


»Юзер: »Пароль:   Запомнить? 
WDTV Forum / Форум про HD фильмы / Эти фильмы не идут / Не видит пару фильмов
Написано:  31 Авг 2011 01:27
General
Complete name                    : G:\films\dochki339.avi
Format                           : AVI
Format/Info                      : Audio Video Interleave
File size                        : 255 MiB
Duration                         : 23mn 22s
Overall bit rate                 : 1 526 Kbps
Writing application              : VirtualDubMod 1.5.10.3 | www.virtualdub-fr.org || (build 2550/release)
Writing library                  : VirtualDubMod build 2550/release

Video
ID                               : 0
Format                           : MPEG-4 Visual
Format profile                   : Advanced Simple@L5
Format settings, BVOP            : 2
Format settings, QPel            : No
Format settings, GMC             : No warppoints
Format settings, Matrix          : Default (MPEG)
Muxing mode                      : Packed bitstream
Codec ID                         : XVID
Codec ID/Hint                    : XviD
Duration                         : 23mn 22s
Bit rate                         : 1 388 Kbps
Width                            : 640 pixels
Height                           : 480 pixels
Display aspect ratio             : 4:3
Frame rate                       : 25.000 fps
Color space                      : YUV
Chroma subsampling               : 4:2:0
Bit depth                        : 8 bits
Scan type                        : Progressive
Compression mode                 : Lossy
Bits/(Pixel*Frame)               : 0.181
Stream size                      : 232 MiB (91%)
Writing library                  : XviD 64

Audio
ID                               : 1
Format                           : MPEG Audio
Format version                   : Version 1
Format profile                   : Layer 3
Mode                             : Joint stereo
Mode extension                   : MS Stereo
Codec ID                         : 55
Codec ID/Hint                    : MP3
Duration                         : 23mn 21s
Bit rate mode                    : Constant
Bit rate                         : 128 Kbps
Channel(s)                       : 2 channels
Sampling rate                    : 48.0 KHz
Compression mode                 : Lossy
Stream size                      : 21.4 MiB (8%)
Alignment                        : Aligned on interleaves
Interleave, duration             : 40 ms (1.00 video frame)
Interleave, preload duration     : 504 ms

и второй
Complete name                    : G:\films\thing.mkv
Format                           : AVI
Format/Info                      : Audio Video Interleave
File size                        : 1.28 GiB
Duration                         : 1h 33mn
Overall bit rate                 : 1 965 Kbps

Video
ID                               : 0
Format                           : MPEG-4 Visual
Format profile                   : Simple@L3
Format settings, BVOP            : No
Format settings, QPel            : No
Format settings, GMC             : No warppoints
Format settings, Matrix          : Default (H.263)
Codec ID                         : XVID
Codec ID/Hint                    : XviD
Duration                         : 1h 33mn
Bit rate                         : 1 728 Kbps
Width                            : 640 pixels
Height                           : 360 pixels
Display aspect ratio             : 16:9
Frame rate                       : 25.000 fps
Color space                      : YUV
Chroma subsampling               : 4:2:0
Bit depth                        : 8 bits
Scan type                        : Progressive
Compression mode                 : Lossy
Bits/(Pixel*Frame)               : 0.300
Stream size                      : 1.12 GiB (88%)
Writing library                  : Magic0432

Audio
ID                               : 1
Format                           : MPEG Audio
Format version                   : Version 1
Format profile                   : Layer 3
Mode                             : Joint stereo
Mode extension                   : MS Stereo
Codec ID                         : 55
Codec ID/Hint                    : MP3
Duration                         : 1h 33mn
Bit rate mode                    : Constant
Bit rate                         : 224 Kbps
Channel(s)                       : 2 channels
Sampling rate                    : 44.1 KHz
Compression mode                 : Lossy
Stream size                      : 149 MiB (11%)
Alignment                        : Aligned on interleaves
Interleave, duration             : 26 ms (0.65 video frame)
Writing library                  : LAME3.97
Написано:  31 Авг 2011 07:42
1 должне нормально играться если также закинули,2 изучаем про расширения http://wdhd.ru/board/index.php?a=vtopic&t=1246 ,должно быть .avi .
__________________
Sharp LC-32X20RU + WDTV Gen2 + WDTV Live (если понравилось 41001352107159 яндекс)
Написано:  31 Авг 2011 10:37
Спасибо за помощь, все заработало, пришлось ЖД почистить и скинуть все фильмы в одну папку (ну и во втором переименовать), тогда все заработало.
Написано:  01 Сен 2011 14:51
Здравствуйте. Я в этом деле новичок и полный ноль. Вот этот фильм не идет. Пишет, что в папке нет медиафайла. Подскажите, пожалуйста, что необходимо сделать. Спасибо. 

Общее
Полное имя                       : D:\Видео\Документальные фильмы и программы\Фонд III Тысячелетие\ЗАПРЕТНЫЕ ТЕМЫ ИСТОРИИ (DVDRip)\[1-й фильм] Загадки Древнего Египта (2005)\1. Тайны семи пирамид.avi
Формат                           : AVI
Формат/Информация                : Audio Video Interleave
Размер файла                     : 372 Мбайт
Продолжительность                : 26 м.
Общий поток                      : 1992 Кбит/сек
Библиотека кодирования           : VirtualDub-MPEG2 build 24600/release

Видео
Идентификатор                    : 0
Формат                           : MPEG-4 Visual
Профиль формата                  : Advanced Simple@L5
Параметр BVOP формата            : 1
Параметр QPel формата            : Нет
Параметр GMC формата             : Без точки перехода
Параметр матрицы формата         : Default (MPEG)
Идентификатор кодека             : XVID
Идентификатор кодека/Подсказка   : XviD
Продолжительность                : 26 м.
Битрейт                          : 1790 Кбит/сек
Ширина                           : 640 пикселей
Высота                           : 512 пикселей
Соотношение сторон               : 5:4
Частота кадров                   : 25,000 кадров/сек
Цветовое пространство            : YUV
Субдискретизация насыщенности    : 4:2:0
Битовая глубина                  : 8 бит
Тип развёртки                    : Прогрессивная
Метод сжатия                     : С потерями
Бит/(Пиксели*Кадры)              : 0.218
Размер потока                    : 334 Мбайт (90%)
Библиотека кодирования           : XviD 1.2.0.dev47 (UTC 2006-11-01)

Аудио
Идентификатор                    : 1
Формат                           : AC-3
Формат/Информация                : Audio Coding 3
Расширение режима                : CM (complete main)
Идентификатор кодека             : 2000
Продолжительность                : 26 м.
Вид битрейта                     : Постоянный
Битрейт                          : 192 Кбит/сек
Каналы                           : 2 канала
Расположение каналов             : Front: L R
Частота                          : 48,0 КГц
Битовая глубина                  : 16 бит
Метод сжатия                     : С потерями
Размер потока                    : 35,8 Мбайт (10%)
Выравнивание                     : Соединение по промежуткам
Продолжительность промежутка     : 40  мс. (1,00 видеокадр)
Время предзагрузки промежутка    : 512  мс.
Написано:  01 Сен 2011 19:23
изучаем про названия http://wdhd.ru/board/index.php?a=vtopic&t=1246 ,перемещаем в другу папку или переименовать папку .
__________________
Sharp LC-32X20RU + WDTV Gen2 + WDTV Live (если понравилось 41001352107159 яндекс)
Написано:  01 Сен 2011 19:46
Спасибо за оперативный ответ, последую вашему указанию.

Поделитесь со своими друзьями в соцсетях:

WDTV Forum / Форум про HD фильмы / Эти фильмы не идут / Не видит пару фильмов