Неофициальный клуб пользователей HD видео плеера WD TV


»Юзер: »Пароль:   Запомнить? 
Написано:  06 Авг 2011 14:40
Доброго времени суток.
Взял WD Elements Play, как проверенный качественный продукт.
У меня почти все фильмы в формате MKV (c разрешением 720), и в первую очередь обращал внимание на то чтобы читал MKV когда выбирал плеер.
Везде пишут что читает, а на деле черный экран и все, никаких признаков воспроизведения, причем все функции работают, не виснет, просто не проигрывает и все.
Хотел перепрошить, оказалось на сайте прошивка старее чем у меня, тут 1.01.10 а у меня стоит 1.01.12 и думаю... а стоит ли менять на более старую...
Подскажите, пожалуйста, что делать...
Написано:  06 Авг 2011 17:13
для начала медианфо в студию http://wdhd.ru/faq.php?q_id=21 ?
__________________
Sharp LC-32X20RU + WDTV Gen2 + WDTV Live (если понравилось 41001352107159 яндекс)
Написано:  06 Авг 2011 17:54
Вот для примера, сделал:


Общее
Уникальный идентификатор         : 193499217626794474249614625491997721898 (0x919297FFA0477695B0CB44CFD6F0852A)
Полное имя                       : H:\Фильмы\Матрица\Матрица (1999.D&En.BDRip.720p.HQ).mkv
Формат                           : Matroska
Версия формата                   : Version 2
Размер файла                     : 6,19 Гбайт
Продолжительность                : 2 ч. 16 м.
Общий поток                      : 6504 Кбит/сек
Название фильма                  : The Matrix (1999)
Дата кодирования                 : UTC 2011-07-05 17:16:54
Программа кодирования            : mkvmerge v4.8.0 ('I Got The...') сборка от May 24 2011 03:12:58
Библиотека кодирования           : libebml v1.2.0 + libmatroska v1.1.0

Видео
Идентификатор                    : 1
Формат                           : AVC
Формат/Информация                : Advanced Video Codec
Профиль формата                  : High@L4.1
Параметр CABAC формата           : Да
Параметр ReFrames формата        : 6 кадров
Параметры GOP формата            : M=1, N=45
Режим смешивания                 : Header stripping
Идентификатор кодека             : V_MPEG4/ISO/AVC
Продолжительность                : 2 ч. 16 м.
Вид битрейта                     : Переменный
Битрейт                          : 5095 Кбит/сек
Максимальный битрейт             : 5217 Кбит/сек
Ширина                           : 1280 пикс.
Высота                           : 532 пикс.
Соотношение сторон               : 2,40:1
Частота кадров                   : 23,976 кадр/сек
Цветовое пространство            : YUV
Подвыборка цветности             : 4:2:0
Битовая глубина                  : 8 бит
Тип развёртки                    : Прогрессивная
Бит/(Пиксели*Кадры)              : 0.312
Размер потока                    : 4,85 Гбайт (78%)
Заголовок                        : Encoded by GYN

Аудио #1
Идентификатор                    : 2
Формат                           : AC-3
Формат/Информация                : Audio Coding 3
Расширение режима                : CM (complete main)
Режим смешивания                 : Header stripping
Идентификатор кодека             : A_AC3
Продолжительность                : 2 ч. 16 м.
Вид битрейта                     : Постоянный
Битрейт                          : 640 Кбит/сек
Каналы                           : 6 каналов
Расположение каналов             : Front: L C R, Side: L R, LFE
Частота                          : 48,0 КГц
Битовая глубина                  : 16 бит
Метод сжатия                     : С потерями
Размер потока                    : 624 Мбайт (10%)
Заголовок                        : DUB
Язык                             : Russian

Аудио #2
Идентификатор                    : 3
Формат                           : AC-3
Формат/Информация                : Audio Coding 3
Расширение режима                : CM (complete main)
Режим смешивания                 : Header stripping
Идентификатор кодека             : A_AC3
Продолжительность                : 2 ч. 16 м.
Вид битрейта                     : Постоянный
Битрейт                          : 640 Кбит/сек
Каналы                           : 6 каналов
Расположение каналов             : Front: L C R, Side: L R, LFE
Частота                          : 48,0 КГц
Битовая глубина                  : 16 бит
Метод сжатия                     : С потерями
Размер потока                    : 624 Мбайт (10%)
Заголовок                        : ENG
Язык                             : English
Написано:  06 Авг 2011 18:00
изучаем про мквмерге http://wdhd.ru/board/index.php?a=vtopic&t=1246 ,похоже для елементс это не поправлено .
__________________
Sharp LC-32X20RU + WDTV Gen2 + WDTV Live (если понравилось 41001352107159 яндекс)
Написано:  06 Авг 2011 18:31
Да, для elements не правили...
Посоветуй, ждать прошивки или пока не поздно поменять на другой?
Как то 150 файлов перекодировать не особо хочется =)
Написано:  06 Авг 2011 18:49
с прошивкой похоже не вариант ждать,но и не все 150 придется переделывать,просто после 1 попытки проигрыша такого файла ,он не проиграет и проверенные .
__________________
Sharp LC-32X20RU + WDTV Gen2 + WDTV Live (если понравилось 41001352107159 яндекс)
Написано:  06 Авг 2011 22:12
Ок.
Спасибо большое!
Написано:  07 Сен 2011 10:39   Отредактировано: alukard
Так что же все таки сделать.ПОМОГИТЕ
а почитать тему,не судьба ?!
Написано:  02 Окт 2011 14:37
Здесь описаны причина и решение проблемы чтения файлов версии выше 4.0:
http://community.wdc.com/t5/WD-TV-HD/MKVMerge-Error-File-won-t-play-Help/td-p/168292

Если коротко, в свежих версиях заголовки упакованы. Помогает программулька mkvfix или снятие галочки в опциях mmg
Написано:  03 Окт 2011 12:50
Стоял toolnix 4.4 перепаковал им жд с фильмами(удалял дорожки на ин.языке для экономии места), подключил - чёрный экран. Было в совете выше, что есть проблемы с версией 4.0 , снёс поставил старую 3.4 , перепаковал - всё заработало, только в каждом файле размер увеличился примерно на 1мгб . Вот так решилось, а то уже хотел заново всё качать. Спасибо diagnost2 за наводку
Написано:  03 Окт 2011 13:06
Цитата:
Стоял toolnix 4.4

FAQ
__________________
WD TV Live(00) 1.02.21; WD TV Live(Gen3) 1.07.15
Написано:  26 Окт 2011 17:48
Вопрос всем,подскажите пожалуйста!
Записал на жёсткий (внешний0 диск фильмы разных расширений.
Диск NTFS. Фильм в .avi - 1.45 gb не читает..Кидаю на флэшку FAT32-
читает. Кидаю на флэшку NTFS - читает.
Кидаю на диск .mkv  2.8gb - читает. Кидаю этот фильм на предыдущие
флэшки - не читает ни с одной!!
Ушатало меня это. чо деять?
Кидаю 2 серии фильма на жёсткий без папок - читает!
Создаю папку с этими фильмами- пишет: в папке нет видео!
Капец какойто! Помогите пожалуйста! С уважением  Лёлик.
Написано:  26 Окт 2011 18:23   Отредактировано: touch
leogets, я бы сначала избавился от кириллицы в именах файлах и папках (если есть)..
после этого снова пробовать!
__________________
Где купить WD TV: Live Streaming

Поделитесь со своими друзьями в соцсетях: