Неофициальный клуб пользователей HD видео плеера WD TV


»Юзер: »Пароль:   Запомнить? 
WDTV Forum / Форум про WD TV Gen2 / Опыт эксплуатации / Не воспроизводит DVD .iso
Написано:  29 Июл 2011 22:52
Почитал как и что и решил с рипа перейти на ДВД воспользовался вашей програмкой DVDshrink накачал кучу ДВД записал их на хард
1ый воспроизвёл , после -идёт время но звука нет и чёрный экран
, помонает только если вытащить из сети и заного и опять же хватит на 1 любой фильм...такое чувство что подгружает 1ый и усё....
почитав массу полезностей тут...отписываю всё что можете спросить...

Полное имя                       : C:\Users\John\Desktop\TITANIK_1997_DVD_9.ISO
Формат                           : ISO 9660
Размер файла                     : 7,89 Гбайт


как видим мало что дало и теперь инфо по внутренему файлу

Полное имя                       : C:\Downloads\Titanik.1997.DVD-9\VIDEO_TS\VTS_01_0.VOB
Формат                           : MPEG-PS
Размер файла                     : 35,8 Мбайт
Продолжительность                : 44 с.
Общий поток                      : 6708 Кбит/сек
Идентификатор                    : 224 (0xE0)
Формат                           : MPEG Video
Версия формата                   : Version 2
Профиль формата                  : Main@Main
Параметр BVOP формата            : Нет
Параметр матрицы формата         : Выборочная
Продолжительность                : 44 с.
Вид битрейта                     : Переменный
Битрейт                          : 6383 Кбит/сек
Ширина                           : 720 пикс.
Высота                           : 576 пикс.
Соотношение сторон               : 16:9
Частота кадров                   : 25,000 кадр/сек
Стандарт вещания                 : Component
Цветовое пространство            : YUV
Подвыборка цветности             : 4:2:0
Битовая глубина                  : 8 бит
Метод сжатия                     : С потерями
Бит/(Пиксели*Кадры)              : 0.616
Размер потока                    : 34,1 Мбайт (95%)
Идентификатор                    : 189 (0xBD)-128 (0x80)
Формат                           : AC-3
Формат/Информация                : Audio Coding 3
Расширение режима                : CM (complete main)
Режим смешивания                 : DVD-Video
Продолжительность                : 44 с.
Вид битрейта                     : Постоянный
Битрейт                          : 192 Кбит/сек
Каналы                           : 2 канала
Расположение каналов             : Front: L R
Частота                          : 48,0 КГц
Битовая глубина                  : 16 бит
Метод сжатия                     : С потерями
Размер потока                    : 1,02 Мбайт (3%)
Идентификатор                    : 189 (0xBD)-32 (0x20)
Формат                           : RLE
Формат/Информация                : Run-length encoding
Режим смешивания                 : DVD-Video
Идентификатор                    : 189 (0xBD)-33 (0x21)
Формат                           : RLE
Формат/Информация                : Run-length encoding
Режим смешивания                 : DVD-Video


в чём проблема ? BDrip обычно только на русском языке...интересует и русский и английский... а обычные BD весят немеренно......подскажите что делаю не так....или какой выход у меня есть ?
П.С:gen2
Написано:  30 Июл 2011 10:24
фильм по сети играется, я так понял?
__________________
Где купить WD TV: Live Streaming
Написано:  30 Июл 2011 11:42
touch
по сети ? нет у меня не Live , DVD скачан , запакован в .iso и записан на доп.хард...
Написано:  31 Июл 2011 21:32
ага, сорри - не увидел сразу!
тогда вопрос такой.. проблемы при просмотре любого файла, или же с какого-то конкретно начинаются? если наткнулся на проблемный файл - рекомендую выключить из сети (это типа холодной перезагрузки плеера) и пробовать снова, с другим фильмом уже.. мне тоже попадались такие dvd, которые не игрались (ни в vob, ни в iso виде) - в причине так и не смог понять.. но таких реально мало - пара фильмов на сотню!
__________________
Где купить WD TV: Live Streaming
Написано:  03 Авг 2011 23:29
touch
именно так как ты и сказал.....если этот фильм не первым воспроизводить то далее всё окей...надеюсь меня это больше не потревожит , спасибки...

Поделитесь со своими друзьями в соцсетях:

WDTV Forum / Форум про WD TV Gen2 / Опыт эксплуатации / Не воспроизводит DVD .iso