Неофициальный клуб пользователей HD видео плеера WD TV


»Юзер: »Пароль:   Запомнить? 
Написано:  10 Июл 2011 15:26   Отредактировано: alvais
При воспроизведении плеером WD TV Gen.2 - черный пустой экран, инфо показывает длительность 0.00, медиаинфа ниже:
Полное имя                       : F:\VIDEO\Limitless.mkv
Формат                           : Matroska
Версия формата                   : Version 2
Размер файла                     : 7,78 Гбайт
Продолжительность                : 1 ч. 44 м.
Общий поток                      : 10,6 Мбит/сек
Дата кодирования                 : UTC 2011-07-09 14:34:38
Программа кодирования            : mkvmerge v4.2.0 ('No Talking') сборка от Jul 28 2010 18:38:23
Библиотека кодирования           : libebml v1.0.0 + libmatroska v1.0.0

Видео
Идентификатор                    : 2
Формат                           : AVC
Формат/Информация                : Advanced Video Codec
Профиль формата                  : Baseline@L1.3
Параметр CABAC формата           : Нет
Параметр ReFrames формата        : 1 кадр
Параметры GOP формата            : M=1, N=12
Режим смешивания                 : Header stripping
Идентификатор кодека             : V_MPEG4/ISO/AVC
Продолжительность                : 1 ч. 44 м.
Битрейт                          : 9780 Кбит/сек
Ширина                           : 1920 пикс.
Высота                           : 1080 пикс.
Соотношение сторон               : 16:9
Частота кадров                   : 47,952 кадр/сек
Цветовое пространство            : YUV
Подвыборка цветности             : 4:2:0
Битовая глубина                  : 8 бит
Тип развёртки                    : Прогрессивная
Бит/(Пиксели*Кадры)              : 0.098
Размер потока                    : 7,16 Гбайт (92%)
Язык                             : Russian

Аудио
Идентификатор                    : 1
Формат                           : AC-3
Формат/Информация                : Audio Coding 3
Расширение режима                : CM (complete main)
Режим смешивания                 : Header stripping
Идентификатор кодека             : A_AC3
Продолжительность                : 1 ч. 44 м.
Вид битрейта                     : Постоянный
Битрейт                          : 640 Кбит/сек
Каналы                           : 6 каналов
Расположение каналов             : Front: L C R, Side: L R, LFE
Частота                          : 48,0 КГц
Битовая глубина                  : 16 бит
Метод сжатия                     : С потерями
Размер потока                    : 479 Мбайт (6%)
Что делать, в кодировании видео я новичок... Да, тему http://wdhd.ru/board/index.php?a=vtopic&t=1246 конечно, прочитал. Есть mkvmerge v.3.0.0, может перекодировать???
Написано:  10 Июл 2011 15:45
Да переделывайте (по сути это не перекодирование иначе это заняло очень много времени).
__________________
Sharp LC-32X20RU + WDTV Gen2 + WDTV Live (если понравилось 41001352107159 яндекс)
Написано:  10 Июл 2011 16:41
После перемукса картинка появилась, но звук отстает прилично ~ 2-4 cek. Alukard, есть идеи?
Написано:  10 Июл 2011 16:52   Отредактировано: alukard
не сразу обратил внимание Частота кадров                   : 47,952 кадр/сек -косяк от релизера,лучше скачайте другой вариант,либо можете сами еще раз переделав указать фпс 23.976 .
пс угу нашел похоже с рутора качали .
__________________
Sharp LC-32X20RU + WDTV Gen2 + WDTV Live (если понравилось 41001352107159 яндекс)
Написано:  11 Июл 2011 20:04   Отредактировано: alvais
Спасибо, Alukard. Точно - с рутора. Да, я тоже вчера обратил внимание на FPS. Скорее всего, перекачаю другой рип.
Написано:  12 Июл 2011 09:49   Отредактировано: kandersen
Был перемукс, может после этого пошел рассинхрон. Да FPS кривой на раздачу не пустили бы. А с первоначальной проблемой я сталкивался лично-подсказали знающие люди. Да и на рутере сильно кривых рипов я не встречал.

Поделитесь со своими друзьями в соцсетях: