Неофициальный клуб пользователей HD видео плеера WD TV


»Юзер: »Пароль:   Запомнить? 
WDTV Forum / Форум про HD фильмы / Эти фильмы не идут / Искусство падения / Fallen Art
Написано:  10 Июл 2009 17:53
Complete name : Fallen.Art.HDTV.1080p.mov
Format : MPEG-4
Format profile : QuickTime
Codec ID : qt
File size : 998 MiB
Duration : 6mn 0s
Overall bit rate : 23.2 Mbps
Encoded date : UTC 2005-05-24 19:30:55
Tagged date : UTC 2005-05-25 00:40:21
Writing library : Apple QuickTime

Video ID : 2
Format : AVC
Format/Info : Advanced Video Codec
Format profile : Main@L4.1
Format settings, CABAC : No
Format settings, ReFrames : 2 frames
Codec ID : avc1
Codec ID/Info : Advanced Video Coding
Duration : 6mn 0s
Bit rate mode : Variable
Bit rate : 22.9 Mbps
Width : 1 920 pixels
Height : 1 080 pixels
Display aspect ratio : 16/9
Frame rate mode : Constant
Frame rate : 24.000 fps
Resolution : 24 bits
Colorimetry : 4:2:0
Scan type : Progressive
Bits/(Pixel*Frame) : 0.459
Stream size : 981 MiB (98%)
Encoded date : UTC 2005-05-25 00:09:14
Tagged date : UTC 2005-05-25 00:40:21

Audio ID : 1
Format : ADPCM
Format settings, Firm : IMA
Codec ID : ima4
Duration : 6mn 0s
Bit rate mode : Constant
Bit rate : 352.8 Kbps
Channel(s) : 2 channels
Sampling rate : 44.1 KHz
Resolution : 16 bits
Stream size : 15.1 MiB (2%)
Encoded date : UTC 2005-05-25 00:09:13
Tagged date : UTC 2005-05-25 00:40:21

Изображение идет, а вот звук не понимает. Чем можно исправить?
Написано:  10 Июл 2009 18:08
вот этой штукой можно например:
mediacoder
__________________
Где купить WD TV: Live Streaming
Написано:  10 Июл 2009 19:30
Перекодил звук этой прогой, склеил в tsmuxer. Все поперло!

Поделитесь со своими друзьями в соцсетях:

WDTV Forum / Форум про HD фильмы / Эти фильмы не идут / Искусство падения / Fallen Art