Неофициальный клуб пользователей HD видео плеера WD TV


»Юзер: »Пароль:   Запомнить? 
WDTV Forum / Форум про WD TV Gen1 / Полезная информация / Поддержка нескольких видео дорог в .mkv .m2ts .ts
Написано:  26 Июн 2009 13:40
Ранее была тема риддика, да и ещё пару таких фильмов было:  http://wdhd.ru/board/index.php?a=vtopic&t=312

Я создал следующий сервисный тег:

Dear Johnny H.,

I have a lot off blu ray films and these films have a lot of audio tracks and some films have one to three video tracks.

So WD TV have an option to select from menu audio tracks in language that is more native to me, but it doesn't have option to select video tracks.

For examle one of my favorite films The Chronicles of Riddick have 3 video tracks - on PC i can choose tracks in player, but WD TV doent have this option - could u ask tech support for publishing this option in new firmware:

General
ID : 0
Complete name : N:\hd films\The Chronicles of Riddick\BDMV\STREAM\00037.m2ts
Format : BDAV
Format/Info : BluRay Video
File size : 26.0 GiB
Duration : 2h 14mn
Overall bit rate : 27.8 Mbps
Maximum Overall bit rate : 48.0 Mbps

Video #1
ID : 4113 (0x1011)
Menu ID : 1 (0x1)
Format : VC-1
Format profile : AP@L3
Duration : 2h 14mn
Width : 1 920 pixels
Height : 1 080 pixels
Display aspect ratio : 16/9
Frame rate : 23.976 fps
Colorimetry : 4:2:0
Scan type : Progressive

Video #2
ID : 6912 (0x1B00)
Menu ID : 1 (0x1)
Format : VC-1
Format profile : AP@L2
Duration : 2h 14mn
Width : 720 pixels
Height : 480 pixels
Display aspect ratio : 4/3
Frame rate : 23.976 fps
Standard : NTSC
Colorimetry : 4:2:0
Scan type : Progressive

Video #3
ID : 6913 (0x1B01)
Menu ID : 1 (0x1)
Format : VC-1
Format profile : AP@L2
Duration : 2h 14mn
Width : 720 pixels
Height : 480 pixels
Display aspect ratio : 16/9
Frame rate : 23.976 fps
Standard : NTSC
Colorimetry : 4:2:0
Scan type : Progressive

Audio #1
ID : 4352 (0x1100)
Menu ID : 1 (0x1)
Format : DTS
Format/Info : Digital Theater Systems
Format profile : MA
Duration : 2h 14mn
Bit rate mode : Variable
Channel(s) : 6 channels
Channel positions : Front: L C R, Surround: L R, LFE
Sampling rate : 48.0 KHz
Resolution : 24 bits

Audio #2
ID : 4353 (0x1101)
Menu ID : 1 (0x1)
Format : DTS
Format/Info : Digital Theater Systems
Duration : 2h 14mn
Bit rate mode : Constant
Bit rate : 1 510 Kbps
Channel(s) : 6 channels
Channel positions : Front: L C R, Surround: L R, LFE
Sampling rate : 48.0 KHz
Resolution : 24 bits
Stream size : 1.41 GiB (5%)

Audio #3
ID : 4354 (0x1102)
Menu ID : 1 (0x1)
Format : AC-3
Format/Info : Audio Coding 3
Duration : 2h 14mn
Bit rate mode : Constant
Bit rate : 448 Kbps
Channel(s) : 6 channels
Channel positions : Front: L C R, Surround: L R, LFE
Sampling rate : 48.0 KHz
Stream size : 430 MiB (2%)

Audio #4
ID : 4355 (0x1103)
Menu ID : 1 (0x1)
Format : AC-3
Format/Info : Audio Coding 3
Duration : 2h 14mn
Bit rate mode : Constant
Bit rate : 448 Kbps
Channel(s) : 6 channels
Channel positions : Front: L C R, Surround: L R, LFE
Sampling rate : 48.0 KHz
Stream size : 430 MiB (2%)

Audio #5
ID : 4356 (0x1104)
Menu ID : 1 (0x1)
Format : DTS
Format/Info : Digital Theater Systems
Duration : 2h 14mn
Bit rate mode : Constant
Bit rate : 1 510 Kbps
Channel(s) : 6 channels
Channel positions : Front: L C R, Surround: L R, LFE
Sampling rate : 48.0 KHz
Resolution : 24 bits
Stream size : 1.41 GiB (5%)

Audio #6
ID : 6656 (0x1A00)
Menu ID : 1 (0x1)
Format : DTS
Format/Info : Digital Theater Systems
Format profile : Express
Duration : 2h 14mn
Bit rate mode : Constant
Bit rate : 192 Kbps
Channel(s) : 2 channels
Channel positions : Front: L, R
Sampling rate : 48.0 KHz
Resolution : 24 bits
Stream size : 184 MiB (1%)

Audio #7
ID : 6657 (0x1A01)
Menu ID : 1 (0x1)
Format : DTS
Format/Info : Digital Theater Systems
Format profile : Express
Duration : 2h 14mn
Bit rate mode : Constant
Bit rate : 192 Kbps
Channel(s) : 2 channels
Channel positions : Front: L, R
Sampling rate : 48.0 KHz
Resolution : 24 bits
Stream size : 184 MiB (1%)

Вот что ответили:

Dear Mike,

Thank you for your reply.

Thank you for your suggestion, we are gathering customers feedback to see how we can improve our product, unfortunately we do not have information on what will be changed or a release date for the upgraded product as of yet. I will forward this e-mail to our feedback queue to be taken under consideration.

You can also add and review suggestions for the WD TV Firmware update at the site below.

http://wdtv.uservoice.com


I hope that we have met your expectations today and that you are satisfied with our service. If you have any further questions, please reply to this email and we will be happy to assist you further.

Sincerely,
Wascar R.
Western Digital Service and Support
http://support.wdc.com

Я создал на их http://wdtv.uservoice.com предложение чтоб создали даную фитчу:

http://wdtv.uservoice.com/pages/17442-general/suggestions/234836-additional-button-in-menu-for-multiple-video-tracks-in-mkv-ts-m2ts-container

Поддержите голосами   ставьте сразу 3
__________________
REMUX FOREVER

Watching HD on: LCD Sharp 46XL2E, Yamaha RX-V563, Yamaha NS-777, Yamaha NS-333, Yamaha NS-444, Yamaha YST-SW215, WD TV, My Book EE 1 TB (3), HP SE 1.5 ТБ (1)|| DVD watching on: Yamaha DVD-S663|| DVD-Audio, SACD: Onkyo DV-SP504E
Написано:  26 Июн 2009 14:04
вообще идея хорошая!
но я вот о чём подумал.. а как быть, если видеодороги разной длины (театралка, режиссёрская версия)? как понять - какое аудио к какой видео относится? будет же жуткая путаница, рассинхрон на неподходящих дорогах и т.п.
__________________
Где купить WD TV: Live Streaming
Написано:  26 Июн 2009 15:58   Отредактировано: NetSearcher
наверное никак... тут остаётся только просто сделать кнопку а нужную дорожку можно руками проклацать или самому доклеить и знать что она по счёту там например 3 или 5 к примеру.
__________________
REMUX FOREVER

Watching HD on: LCD Sharp 46XL2E, Yamaha RX-V563, Yamaha NS-777, Yamaha NS-333, Yamaha NS-444, Yamaha YST-SW215, WD TV, My Book EE 1 TB (3), HP SE 1.5 ТБ (1)|| DVD watching on: Yamaha DVD-S663|| DVD-Audio, SACD: Onkyo DV-SP504E
Написано:  26 Июн 2009 16:02
Цитата:
а нужную дорожку можно руками проклацать или самому доклеить и знать что она по счёту там например 3 или 5 к примеру

ну видимо так, да
хотя я представляю, сколько будет вопросов "а чего это у меня рассинхрон", если такая фишка в народ пойдёт
__________________
Где купить WD TV: Live Streaming
Написано:  26 Июн 2009 22:00
просто если скажут что не будут делать я нах повырезаю из фильмов эти дороги в tsmuxer.
__________________
REMUX FOREVER

Watching HD on: LCD Sharp 46XL2E, Yamaha RX-V563, Yamaha NS-777, Yamaha NS-333, Yamaha NS-444, Yamaha YST-SW215, WD TV, My Book EE 1 TB (3), HP SE 1.5 ТБ (1)|| DVD watching on: Yamaha DVD-S663|| DVD-Audio, SACD: Onkyo DV-SP504E
Написано:  03 Июл 2009 11:33   Отредактировано: NetSearcher
сколько людей на форуме и всем впадло проголосовать
__________________
REMUX FOREVER

Watching HD on: LCD Sharp 46XL2E, Yamaha RX-V563, Yamaha NS-777, Yamaha NS-333, Yamaha NS-444, Yamaha YST-SW215, WD TV, My Book EE 1 TB (3), HP SE 1.5 ТБ (1)|| DVD watching on: Yamaha DVD-S663|| DVD-Audio, SACD: Onkyo DV-SP504E
Написано:  03 Июл 2009 11:45
ну все кто хотел проголосовал, я думаю =)
видимо остальным фича не кажется нужной

я 2 голоса отдал
у меня там более приоритетные фичи есть )
__________________
Где купить WD TV: Live Streaming
Написано:  03 Июл 2009 11:47   Отредактировано: touch
вообще список затребованных фич поражает!
надеюсь большинство из них не будет реализовано в wdtv иначе это будет супер-глюкавый комбайн типа "всё-в-одном".. ну нафиг!
__________________
Где купить WD TV: Live Streaming

Поделитесь со своими друзьями в соцсетях:

WDTV Forum / Форум про WD TV Gen1 / Полезная информация / Поддержка нескольких видео дорог в .mkv .m2ts .ts