Неофициальный клуб пользователей HD видео плеера WD TV


»Юзер: »Пароль:   Запомнить? 
WDTV Forum / Форум про HD фильмы / Эти фильмы не идут / Почему не проигрывает MP4 ?((
Написано:  03 Май 2011 11:01
Добрый день
Такая проблема скачал видео на 6 гб в формате мп4 но плеер выдает ошибку что типа не подер формат смотр в инстрк.
Прошивка стоит на плеере 1.04.22.
Или может подскажите что можно сделать чтобы он смог запустить это видео
Вот харак данного видео:

Format                           : MPEG-4
Format profile                   : Base Media
Codec ID                         : isom
File size                        : 5.69 GiB
Duration                         : 2h 51mn
Overall bit rate                 : 4 743 Kbps
Encoded date                     : UTC 2011-05-01 16:33:42
Tagged date                      : UTC 2011-05-01 16:33:42
Writing application              : Yamb 2.1.0.0 [http://yamb.unite-video.com]

Video
ID                               : 1
Format                           : AVC
Format/Info                      : Advanced Video Codec
Format profile                   : High@L3.1
Format settings, CABAC           : Yes
Format settings, ReFrames        : 4 frames
Codec ID                         : avc1
Codec ID/Info                    : Advanced Video Coding
Duration                         : 2h 51mn
Bit rate mode                    : Variable
Bit rate                         : 4 548 Kbps
Maximum bit rate                 : 6 824 Kbps
Width                            : 1 280 pixels
Height                           : 720 pixels
Display aspect ratio             : 16:9
Frame rate mode                  : Constant
Frame rate                       : 29.970 fps
Color space                      : YUV
Chroma subsampling               : 4:2:0
Bit depth                        : 8 bits
Scan type                        : Progressive
Bits/(Pixel*Frame)               : 0.165
Stream size                      : 5.46 GiB (96%)
Writing library                  : x264 core 88 r1471 1144615
Encoding settings                : cabac=1 / ref=5 / deblock=1:0:0 / analyse=0x3:0x113 / me=umh / subme=9 / psy=1 / psy_rd=1.00:0.00 / mixed_ref=1 / me_range=16 / chroma_me=1 / trellis=1 / 8x8dct=1 / cqm=0 / deadzone=21,11 / fast_pskip=1 / chroma_qp_offset=-2 / threads=12 / sliced_threads=0 / nr=0 / decimate=1 / mbaff=0 / constrained_intra=0 / bframes=3 / b_pyramid=1 / b_adapt=2 / b_bias=0 / direct=3 / wpredb=1 / wpredp=2 / keyint=300 / keyint_min=30 / scenecut=40 / intra_refresh=0 / rc_lookahead=40 / rc=crf / mbtree=1 / crf=14.0 / qcomp=0.60 / qpmin=10 / qpmax=51 / qpstep=4 / vbv_maxrate=4700 / vbv_bufsize=4650 / ip_ratio=1.40 / aq=1:1.00
Encoded date                     : UTC 2011-05-01 16:33:42
Tagged date                      : UTC 2011-05-01 16:38:46

Audio
ID                               : 2
Format                           : AAC
Format/Info                      : Advanced Audio Codec
Format version                   : Version 4
Format profile                   : LC
Format settings, SBR             : No
Codec ID                         : 40
Duration                         : 2h 51mn
Bit rate mode                    : Variable
Bit rate                         : 192 Kbps
Maximum bit rate                 : 207 Kbps
Channel(s)                       : 2 channels
Channel positions                : Front: L R
Sampling rate                    : 48.0 KHz
Compression mode                 : Lossy
Stream size                      : 233 MiB (4%)
Encoded date                     : UTC 2011-05-01 16:38:27
Tagged date                      : UTC 2011-05-01 16:38:46
Написано:  03 Май 2011 11:21   Отредактировано: alukard
строчку с названием еще предоставьте ?! Так еще и на 2 форума залили блин ну дождитесь вы для начала ответа на 1 прежде чем копировать всюду.
__________________
Sharp LC-32X20RU + WDTV Gen2 + WDTV Live (если понравилось 41001352107159 яндекс)
Написано:  03 Май 2011 11:25   Отредактировано: art83
с каким названием ?
если название файла то вот :  WWE.Extreme.Rules 2011.mp4
Написано:  03 Май 2011 11:26
нужно полностью с расширением ! пример - Interstella-5555.avi
__________________
Sharp LC-32X20RU + WDTV Gen2 + WDTV Live (если понравилось 41001352107159 яндекс)
Написано:  03 Май 2011 11:38   Отредактировано: alukard
угу видел,я просто проверял на всякий случай похожий файл (должен играться).Тогда попробуйте переделать в мквмерге http://wdhd.ru/faq.php?q_id=13 . Да и самое важное не написали откуда смотрится ?
__________________
Sharp LC-32X20RU + WDTV Gen2 + WDTV Live (если понравилось 41001352107159 яндекс)
Написано:  03 Май 2011 11:43
Версия плеера Live.
Подкл к внешн жест диску WD My Book Essential Edition 1TB
Написано:  03 Май 2011 11:56
Хм по усб точно не должно проблем быть,попробуйте переделать .
__________________
Sharp LC-32X20RU + WDTV Gen2 + WDTV Live (если понравилось 41001352107159 яндекс)
Написано:  03 Май 2011 12:00
Спс мквмерге спас ситуацию
Написано:  03 Май 2011 12:03
Ну гут ,тогда пожалуйста удалите свое сообщение на иксбит .
__________________
Sharp LC-32X20RU + WDTV Gen2 + WDTV Live (если понравилось 41001352107159 яндекс)
Написано:  03 Май 2011 12:10
а как это сделать ?
Написано:  03 Май 2011 12:18
последнее точно должна возможность удалить,если был автовыход то войти по логину и паролю своему (вверху справу должна быть возможность удалить сообщение ).
__________________
Sharp LC-32X20RU + WDTV Gen2 + WDTV Live (если понравилось 41001352107159 яндекс)

Поделитесь со своими друзьями в соцсетях:

WDTV Forum / Форум про HD фильмы / Эти фильмы не идут / Почему не проигрывает MP4 ?((