Неофициальный клуб пользователей HD видео плеера WD TV


»Юзер: »Пароль:   Запомнить? 
Написано:  25 Июн 2009 17:30
Фильм в целом идет, но начинает дергаться - показывать по 1 кадру в секунду и звук пропадает. Такое происходит на любых динамичных сценах. Можно бороться тем, что при дергании сразу выбирать другую звуковую дорожку (а то вылетит в главное меню) и тогда играется опять нормально до следующей динамичной сцены.
Причем ReFrames всего-лишь = 4

General
Complete name                    : g:\video\hdtv\leon\Leon.mkv
Format                           : Matroska
File size                        : 28.5 GiB
Duration                         : 2h 12mn
Overall bit rate                 : 30.7 Mbps
Encoded date                     : UTC 2008-10-27 12:10:46
Writing application              : mkvmerge v2.4.0 ('Fumbling Towards Ecstasy') built on Oct 11 2008 20:13:15
Writing library                  : libebml v0.7.7 + libmatroska v0.8.1

Video
ID                               : 1
Format                           : AVC
Format/Info                      : Advanced Video Codec
Format profile                   : High@L4.1
Format settings, CABAC           : Yes
Format settings, ReFrames        : 4 frames
Muxing mode                      : Container profile=Unknown@0.0
Codec ID                         : V_MPEG4/ISO/AVC
Duration                         : 2h 12mn
Bit rate                         : 24.3 Mbps
Width                            : 1 920 pixels
Height                           : 1 080 pixels
Display aspect ratio             : 16/9
Frame rate                       : 23.976 fps
Standard                         : NTSC
Resolution                       : 24 bits
Colorimetry                      : 4:2:0
Scan type                        : Progressive
Bits/(Pixel*Frame)               : 0.489
Stream size                      : 22.5 GiB (79%)
Language                         : English

Audio #1
ID                               : 2
Format                           : DTS
Format/Info                      : Digital Theater Systems
Codec ID                         : A_DTS
Duration                         : 2h 12mn
Bit rate mode                    : Constant
Bit rate                         : 755 Kbps
Channel(s)                       : 6 channels
Channel positions                : Front: L C R, Surround: L R, LFE
Sampling rate                    : 48.0 KHz
Resolution                       : 24 bits
Stream size                      : 717 MiB (2%)
Title                            : Mnogogoloska DTS 5.1 768 kbps
Language                         : Russian

Audio #2
ID                               : 3
Format                           : DTS
Format/Info                      : Digital Theater Systems
Codec ID                         : A_DTS
Duration                         : 2h 12mn
Bit rate mode                    : Constant
Bit rate                         : 1 510 Kbps
Channel(s)                       : 6 channels
Channel positions                : Front: L C R, Surround: L R, LFE
Sampling rate                    : 48.0 KHz
Resolution                       : 24 bits
Stream size                      : 1.40 GiB (5%)
Title                            : Goblin DTS 5.1 1536 kbps
Language                         : Russian

Audio #3
ID                               : 4
Format                           : DTS
Format/Info                      : Digital Theater Systems
Codec ID                         : A_DTS
Duration                         : 2h 12mn
Bit rate mode                    : Constant
Bit rate                         : 755 Kbps
Channel(s)                       : 6 channels
Channel positions                : Front: L C R, Surround: L R, LFE
Sampling rate                    : 48.0 KHz
Resolution                       : 24 bits
Stream size                      : 717 MiB (2%)
Title                            : Gavrilov DTS 5.1 768 kbps
Language                         : Russian

Audio #4
ID                               : 5
Format                           : DTS
Format/Info                      : Digital Theater Systems
Format profile                   : HRA
Codec ID                         : A_DTS
Duration                         : 2h 12mn
Bit rate mode                    : Constant
Bit rate                         : 2 815 Kbps
Channel(s)                       : 8 channels
Channel positions                : Front: L C R, Surround: L C C R, LFE
Sampling rate                    : 48.0 KHz
Resolution                       : 24 bits
Stream size                      : 2.61 GiB (9%)
Title                            : DTS Hi-Res 7.1 2864 kbps
Language                         : English
Написано:  25 Июн 2009 23:03
угу.. странный эффект.. у меня вчера похожая фигня была с "From Dusk Till Dawn", причём параметры тоже были нормальными - т.е. играбельными.. но видео шло нарезкой - слайдшоу эдакое - и по звуку рассинхрон.. я так и не понял, что это! остальные фильмы нормально играются!

ps
а какая прошивка стоит?
__________________
Где купить WD TV: Live Streaming
Написано:  26 Июн 2009 12:43
да интересный глюк не встречал такого, действительно какая версия прошивки?
__________________
REMUX FOREVER

Watching HD on: LCD Sharp 46XL2E, Yamaha RX-V563, Yamaha NS-777, Yamaha NS-333, Yamaha NS-444, Yamaha YST-SW215, WD TV, My Book EE 1 TB (3), HP SE 1.5 ТБ (1)|| DVD watching on: Yamaha DVD-S663|| DVD-Audio, SACD: Onkyo DV-SP504E
Написано:  26 Июн 2009 17:19
У меня такие яйца всегда с mkv. Этот контейнер ВДТВ вообще не тянет на ремуксах. Приходится пересобирать в m2ts. Попробуй. Может поможет
Написано:  28 Июн 2009 19:28
Прошивка 1.02.10.

Ragerus, идея хорошая, обязательно попробую

Поделитесь со своими друзьями в соцсетях: