Неофициальный клуб пользователей HD видео плеера WD TV


»Юзер: »Пароль:   Запомнить? 
WDTV Forum / Форум про WD TV Live Hub / Опыт эксплуатации / Чтобы на HUB-е шли все MKV фильмы - голосуйте!!!
Написано:  26 Апр 2011 11:48   Отредактировано: Sabush
Общую проблему с отсутствием нормального воспроизведения MKV файлов, сделанных матрешкой версии больше 4.0, можно решить проголосовав на официальном сайте WD.
Для этого надо перейти по ссылке, зарегистрироваться и проголосовать щелкнув по иконке стрелочка вверх, чтобы это поправили в следующих прошивках ...

http://community.wdc.com/t5/Live-Hub-Ideas/MKV-header-removal-compression/idi-p/178538
Написано:  26 Апр 2011 12:55
проблема с компрессированным заголовком на хабе уже давно решена
Написано:  26 Апр 2011 13:09   Отредактировано: alukard
угу решена,и прежде чем создавать такие темы для начала попробуйте прошивки и ознакомтесь с отзывами .
а если не воспроизводится какой-то файл медиаинфо в студию http://wdhd.ru/faq.php?q_id=21
__________________
Sharp LC-32X20RU + WDTV Gen2 + WDTV Live (если понравилось 41001352107159 яндекс)
Написано:  26 Апр 2011 16:00   Отредактировано: Sabush
Это где же она решена?
Две недели назад купил себе эту железку, прошил последней прошивкой 2.05.08, воткнул террабайтник с фильмами и увидел такую картину:
половина mkv начинает воспроизводиться несколько секунд и вылетает в список фильмов ...
начал копать инет, нашел вашу тему про матрешку
http://wdhd.ru/faq.php?q_id=13
и точно, оказалось что те файлы что нормально не воспроизводились закодированы версией MKVmerge старше 4.0 или другими программами с  библиотекой матрешки версии старше 1.0
После шаманства с MKVmerge 4.0 все прекрасно начинало воспроизводиться ...
Кто прав?
Написано:  26 Апр 2011 17:53
хм а после прошиви резет делали ? если также будет попробуйте прошивку 2.04.13
__________________
Sharp LC-32X20RU + WDTV Gen2 + WDTV Live (если понравилось 41001352107159 яндекс)
Написано:  26 Апр 2011 18:08   Отредактировано: Sabush
Ресет делал, не помогло.
Вот инфо одного из фильмов, другие "ушли" :-) с диском. Может чего прояснит ...
Общее
Уникальный идентификатор         : 189388736594283331573962341021252260449 (0x8E7AF1A303CF4B682C8C0E77333B1261)
Полное имя                       : I:\Films\13 привидений.mkv
Формат                           : Matroska
Размер файла                     : 16,6 Гбайт
Продолжительность                : 1 ч. 30 м.
Общий поток                      : 26,2 Мбит/сек
Дата кодирования                 : UTC 2011-03-07 17:43:19
Программа кодирования            : gdsmux
Библиотека кодирования           : Haali DirectShow Matroska Muxer 1.10.348.15

Видео
Идентификатор                    : 1
Формат                           : AVC
Формат/Информация                : Advanced Video Codec
Профиль формата                  : High@L4.1
Параметр CABAC формата           : Да
Параметр ReFrames формата        : 2 кадра
Режим смешивания                 : Container profile=Unknown@0.0
Идентификатор кодека             : V_MPEG4/ISO/AVC
Продолжительность                : 1 ч. 30 м.
Вид битрейта                     : Переменный
Битрейт                          : 25,3 Мбит/сек
Ширина                           : 1920 пикс.
Высота                           : 1080 пикс.
Соотношение сторон               : 16:9
Частота кадров                   : 23,976 кадр/сек
Цветовое пространство            : YUV
Подвыборка цветности             : 4:2:0
Битовая глубина                  : 8 бит
Тип развёртки                    : Прогрессивная
Бит/(Пиксели*Кадры)              : 0.508
Размер потока                    : 16,0 Гбайт (96%)
Язык                             : English

Аудио
Идентификатор                    : 2
Формат                           : AC-3
Формат/Информация                : Audio Coding 3
Расширение режима                : CM (complete main)
Режим смешивания                 : Header stripping
Идентификатор кодека             : A_AC3
Продолжительность                : 1 ч. 30 м.
Вид битрейта                     : Постоянный
Битрейт                          : 448 Кбит/сек
Каналы                           : 6 каналов
Расположение каналов             : Front: L C R, Side: L R, LFE
Частота                          : 48,0 КГц
Битовая глубина                  : 16 бит
Метод сжатия                     : С потерями
Размер потока                    : 291 Мбайт (2%)
Язык                             : Russian
Написано:  26 Апр 2011 19:34
хоть в этой сжатие и есть,но мне не нравится вот это - Программа кодирования            : gdsmux
Библиотека кодирования           : Haali DirectShow Matroska Muxer 1.10.348.15 .
Можете сами проверить как будет работать просто переделав в мквмерге выше версии 4.0 не отключаю компрессию,вот тогда будет ясно изза чего косяк.
__________________
Sharp LC-32X20RU + WDTV Gen2 + WDTV Live (если понравилось 41001352107159 яндекс)
Написано:  26 Апр 2011 19:59
2 Sabush
а причем здесь указанный файл и проблема с компрессией заголовка в mkvmerge???
в данном медиаинфо нет НИЧЕГО про mkvmerge

а вот как выглядит медиаинфо файла, обработанного mkvmerge
Код:


Writing application              : mkvmerge v4.4.0 ('Die Wiederkehr') сборка от Nov  7 2010 22:17:07
Writing library                  : libebml v1.0.0 + libmatroska v1.0.0


Код:


Writing application              : mkvmerge v2.9.7 ('Tenderness') built on Jul  1 2009 18:43:35
Writing library                  : libebml v0.7.7 + libmatroska v0.8.1
Написано:  27 Апр 2011 07:42
Переделал в mkvmerge 4.7 ...
показывает нормально. Неужели мне попался террабайтник битых mkv? Хотя на IconBit HTravel XD все показывало просто изумительно ...
Написано:  27 Апр 2011 07:58
ну вот все дело в какой-то непонятной проге кодирования,так что нормально он играет такие файлы .
__________________
Sharp LC-32X20RU + WDTV Gen2 + WDTV Live (если понравилось 41001352107159 яндекс)
Написано:  27 Апр 2011 11:56
вообще странно это всё
по идее - чем бы ни была матрёшка собрана, лишь бы в соответствии со стандартом.. уж муксер то haali вряд ли бы кривой сделали.. я бы попробовал ещё раз прогнать через тот же gdsmux (новый), может там версия глючная была, например
__________________
Где купить WD TV: Live Streaming

Поделитесь со своими друзьями в соцсетях:

WDTV Forum / Форум про WD TV Live Hub / Опыт эксплуатации / Чтобы на HUB-е шли все MKV фильмы - голосуйте!!!