Неофициальный клуб пользователей HD видео плеера WD TV


»Юзер: »Пароль:   Запомнить? 
WDTV Forum / Форум про WD TV Gen2 / Опыт эксплуатации / Фильм идет с артефактами
Написано:  23 Апр 2011 12:37
Не могу понять некоторые рипы идут с артефактами (квадратится картинка, зависает и т.д.) может что то не то с рипом вот инфа
Общее
Полное имя                       : H:\Видео\Poceluj.skvoz.stenu.2011.O.HDRip.avi
Формат                           : AVI
Формат/Информация                : Audio Video Interleave
Размер файла                     : 1,36 Гбайт
Продолжительность                : 1 ч. 30 м.
Общий поток                      : 2163 Кбит/сек
Программа кодирования            : VirtualDubMod 1.5.10.2 (build 2540/release)
Библиотека кодирования           : VirtualDubMod build 2540/release

Видео
Идентификатор                    : 0
Формат                           : MPEG-4 Visual
Профиль формата                  : Advanced Simple@L5
Параметр BVOP формата            : 4
Параметр QPel формата            : Да
Параметр GMC формата             : 3 точки перехода
Параметр матрицы формата         : Default (H.263)
Идентификатор кодека             : XVID
Идентификатор кодека/Подсказка   : XviD
Продолжительность                : 1 ч. 30 м.
Битрейт                          : 1705 Кбит/сек
Ширина                           : 720 пикс.
Высота                           : 304 пикс.
Соотношение сторон               : 2,35:1
Частота кадров                   : 23,976 кадр/сек
Цветовое пространство            : YUV
Подвыборка цветности             : 4:2:0
Битовая глубина                  : 8 бит
Тип развёртки                    : Прогрессивная
Метод сжатия                     : С потерями
Бит/(Пиксели*Кадры)              : 0.325
Размер потока                    : 1,07 Гбайт (79%)
Библиотека кодирования           : XviD 1.2.1 (UTC 2008-12-04)

Аудио
Идентификатор                    : 1
Формат                           : AC-3
Формат/Информация                : Audio Coding 3
Расширение режима                : CM (complete main)
Идентификатор кодека             : 2000
Продолжительность                : 1 ч. 30 м.
Вид битрейта                     : Постоянный
Битрейт                          : 448 Кбит/сек
Канал(ы)                         : 6 канала(ов)
Расположение каналов             : Front: L C R, Side: L R, LFE
Частота                          : 48,0 КГц
Битовая глубина                  : 16 бит
Метод сжатия                     : С потерями
Размер потока                    : 289 Мбайт (21%)
Выравнивание                     : Разделение по промежуткам
Продолжительность промежутка     : 42  мс. (1,00 видеокадр)
Время предзагрузки промежутка    : 500 ms
Написано:  23 Апр 2011 13:02
Цитата:
Параметр GMC формата             : 3 точки перехода

вот из-за этого!
а вообще - нафига такие рипы сдались? это же hd плеер.. качай нормальные 720p в матрёшке.. весят всего в 2-3 раза больше, зато гимора никакого и качество на порядок выше
__________________
Где купить WD TV: Live Streaming
Написано:  24 Апр 2011 04:50
А исправить  этот рип уже никак, я правильно понимаю?
Написано:  24 Апр 2011 08:32
неа, он криво закодирован уже изначально..
ну разве что перекодировать!
__________________
Где купить WD TV: Live Streaming
Написано:  28 Апр 2011 18:21   Отредактировано: DLS
touch спасибо.

Но ведь компьютер воспроизводит корректно, выходит, нужно прошивку поправить.

сам решил проблему перекодированием в VirtualDub в кодек DivX.. только звук немного разсинхронизировался, может какую галочку воткнуть надо было.
Написано:  28 Апр 2011 18:25
скока раз говорилось компьтер не показатель,на всех железных плеерах такой рип будет с косяками .
__________________
Sharp LC-32X20RU + WDTV Gen2 + WDTV Live (если понравилось 41001352107159 яндекс)
Написано:  01 Май 2011 21:29
alukard, компьютер по сути тоже железо.

главное что бы таким образом не было борьбы с производителями плееров.
Написано:  01 Май 2011 21:42
в корне не верно ! в плееры зашиты определенные кодеки и особенно сильного расширения я не видел в новых прошивках,только поправки,на компе можно установить любое количество кодеков !
__________________
Sharp LC-32X20RU + WDTV Gen2 + WDTV Live (если понравилось 41001352107159 яндекс)

Поделитесь со своими друзьями в соцсетях:

WDTV Forum / Форум про WD TV Gen2 / Опыт эксплуатации / Фильм идет с артефактами