Неофициальный клуб пользователей HD видео плеера WD TV


»Юзер: »Пароль:   Запомнить? 
WDTV Forum / Форум про HD фильмы / Эти фильмы не идут / не идёт мультик "Рапунцель - Запутанная История"
Написано:  18 Апр 2011 21:28
Плеер WD TV LIVE отказывается читать этот мультик, при попытке воспроизвести отправляет читать мануал :-)

Общее
Идентификатор                    : 1 (0x1)
Полное имя                       : K:\films\Rapuncel.mkv
Формат                           : BDAV
Формат/Информация                : Blu-ray Video
Размер файла                     : 23,3 Гбайт
Продолжительность                : 1 ч. 40 м.
Общий поток                      : 33,3 Мбит/сек
Максимальный общий битрейт       : 35,5 Мбит/сек

Видео
Идентификатор                    : 4113 (0x1011)
Идентификатор меню               : 1 (0x1)
Формат                           : AVC
Формат/Информация                : Advanced Video Codec
Профиль формата                  : High@L4.1
Параметр CABAC формата           : Да
Параметр ReFrames формата        : 4 кадры
Идентификатор кодека             : 27
Продолжительность                : 1 ч. 40 м.
Вид битрейта                     : Переменный
Битрейт                          : 28,3 Мбит/сек
Максимальный битрейт             : 29,0 Мбит/сек
Ширина                           : 1920 пикс.
Высота                           : 1080 пикс.
Соотношение сторон               : 16:9
Частота кадров                   : 23,976 кадр/сек
Цветовое пространство            : YUV
Подвыборка цветности             : 4:2:0
Битовая глубина                  : 8 бит
Тип развёртки                    : Прогрессивная
Бит/(Пиксели*Кадры)              : 0.568
Размер потока                    : 19,8 Гбайт (85%)

Аудио #1
Идентификатор                    : 4352 (0x1100)
Идентификатор меню               : 1 (0x1)
Формат                           : AC-3
Формат/Информация                : Audio Coding 3
Расширение режима                : CM (complete main)
Идентификатор кодека             : 129
Продолжительность                : 1 ч. 40 м.
Вид битрейта                     : Постоянный
Битрейт                          : 384 Кбит/сек
Канал(ы)                         : 6 канала(ов)
Расположение каналов             : Front: L C R, Side: L R, LFE
Частота                          : 48,0 КГц
Битовая глубина                  : 16 бит
Метод сжатия                     : С потерями
Размер потока                    : 276 Мбайт (1%)
Язык                             : Russian

Аудио #2
Идентификатор                    : 4353 (0x1101)
Идентификатор меню               : 1 (0x1)
Формат                           : DTS
Формат/Информация                : Digital Theater Systems
Профиль формата                  : MA / Core
Режим смешивания                 : Stream extension
Идентификатор кодека             : 134
Продолжительность                : 1 ч. 40 м.
Вид битрейта                     : Переменный
Битрейт                          : 3292 Кбит/сек / 1510 Кбит/сек
Канал(ы)                         : 8 канала(ов) / 6 канала(ов)
Расположение каналов             : Front: L C R, Side: L R, Back: L R, LFE / Front: L C R, Side: L R, LFE
Частота                          : 48,0 КГц
Битовая глубина                  : 24 бит
Метод сжатия                     : Без потерь / Lossy
Язык                             : English

Текст #1
Идентификатор                    : 4609 (0x1201)
Идентификатор меню               : 1 (0x1)
Формат                           : PGS
Идентификатор кодека             : 144
Язык                             : English

Текст #2
Идентификатор                    : 4610 (0x1202)
Идентификатор меню               : 1 (0x1)
Формат                           : PGS
Идентификатор кодека             : 144
Язык                             : French

Текст #3
Идентификатор                    : 4612 (0x1204)
Идентификатор меню               : 1 (0x1)
Формат                           : PGS
Идентификатор кодека             : 144
Язык                             : Spanish

Текст #4
Идентификатор                    : 4613 (0x1205)
Идентификатор меню               : 1 (0x1)
Формат                           : PGS
Идентификатор кодека             : 144
Язык                             : Spanish
Написано:  18 Апр 2011 21:41
и правильно посылает риппер криворукий ,на конце вместо .mkv должно быть .m2ts
__________________
Sharp LC-32X20RU + WDTV Gen2 + WDTV Live (если понравилось 41001352107159 яндекс)
Написано:  18 Апр 2011 22:01
Спасибо огромное! Переименование расширения в .m2ts решило проблему :-)

Поделитесь со своими друзьями в соцсетях:

WDTV Forum / Форум про HD фильмы / Эти фильмы не идут / не идёт мультик "Рапунцель - Запутанная История"