Неофициальный клуб пользователей HD видео плеера WD TV


»Юзер: »Пароль:   Запомнить? 
WDTV Forum / Форум про HD фильмы / Эти фильмы играются / Адреналин / Crank (2006) 1080p remux
Написано:  22 Июн 2009 11:41
Адреналин / Crank (2006) 1080p

Статус идёт без проблем.



Страна: Великобритания, США
Год: 2006
Режиссер:  Брайан Тейлор, Марк Невелдайн
В ролях: Джейсон Стетхэм, Эми Смарт, Эфрен Рамирес, Хосе Пабло Кантильо, Двайт Йокам, Карлос Санц, Рено Уилсон, Эди Гатеги, Гленн Ховертон, Кион Янг и др.
Сценарий:  Брайан Тейлор, Марк Невелдайн
Бюджет: $12 млн.
Мировая премьера: 01 сентября 2006
Премьера в России: 31 августа 2006
Ссылки на фильм:
IMDB: http://www.imdb.com/title/tt479884/
Офф. Сайт: http://www.crankfilm.com/

Он - наемный убийца. Его утро начинается с тревожного звонка, в котором ему сообщают, что он отравлен, и жить ему осталось не больше часа. Его сердце еле бьется и только адреналин в крови как-то препятсвует его полной остановке. В течение часа ему предстоит сумасшедшая «прогулка» по Лос-Анджелесу, за время которой он попытается найти антидот, уничтожить своих врагов и спасти свою девушку, чтобы начать с ней новую жизнь.

http://hdtracker.ru/details.php?id=486  gold раздача

mediainfo:

General
ID                               : 0
Complete name                    : N:\hd films\Crank.2006.1080p.Blu-Ray.(HDTracker.ru).ts
Format                           : MPEG-TS
File size                        : 15.6 GiB
Duration                         : 1h 28mn
Overall bit rate                 : 25.2 Mbps

Video
ID                               : 17 (0x11)
Menu ID                          : 1 (0x1)
Format                           : MPEG Video
Format version                   : Version 2
Format profile                   : Main@High
Format settings, Matrix          : Default
Duration                         : 1h 28mn
Bit rate mode                    : Variable
Bit rate                         : 22.4 Mbps
Nominal bit rate                 : 37.0 Mbps
Width                            : 1 920 pixels
Height                           : 1 080 pixels
Display aspect ratio             : 16/9
Frame rate                       : 23.976 fps
Colorimetry                      : 4:2:0
Scan type                        : Progressive
Bits/(Pixel*Frame)               : 0.450
Stream size                      : 13.8 GiB (89%)

Audio #1
ID                               : 20 (0x14)
Menu ID                          : 1 (0x1)
Format                           : AC-3
Format/Info                      : Audio Coding 3
Duration                         : 1h 28mn
Bit rate mode                    : Constant
Bit rate                         : 384 Kbps
Channel(s)                       : 6 channels
Channel positions                : Front: L C R, Surround: L R, LFE
Sampling rate                    : 48.0 KHz
Stream size                      : 243 MiB (2%)

Audio #2
ID                               : 21 (0x15)
Menu ID                          : 1 (0x1)
Format                           : AC-3
Format/Info                      : Audio Coding 3
Duration                         : 1h 27mn
Bit rate mode                    : Constant
Bit rate                         : 640 Kbps
Channel(s)                       : 6 channels
Channel positions                : Front: L C R, Surround: L R, LFE
Sampling rate                    : 48.0 KHz
Stream size                      : 401 MiB (3%)
__________________
REMUX FOREVER

Watching HD on: LCD Sharp 46XL2E, Yamaha RX-V563, Yamaha NS-777, Yamaha NS-333, Yamaha NS-444, Yamaha YST-SW215, WD TV, My Book EE 1 TB (3), HP SE 1.5 ТБ (1)|| DVD watching on: Yamaha DVD-S663|| DVD-Audio, SACD: Onkyo DV-SP504E

Поделитесь со своими друзьями в соцсетях:

WDTV Forum / Форум про HD фильмы / Эти фильмы играются / Адреналин / Crank (2006) 1080p remux